<?xml version="1.0" standalone="no"?>
<!DOCTYPE svg PUBLIC "-//W3C//DTD SVG 1.1//EN" "http://www.w3.org/Graphics/SVG/1.1/DTD/svg11.dtd" >
<svg xmlns="http://www.w3.org/2000/svg">
<metadata></metadata>
<defs>
<font id="marco_poloregular" horiz-adv-x="1036" >
<font-face units-per-em="2048" ascent="1638" descent="-410" />
<missing-glyph horiz-adv-x="479" />
<glyph horiz-adv-x="0" />
<glyph unicode="&#xd;" horiz-adv-x="479" />
<glyph unicode=" "  horiz-adv-x="479" />
<glyph unicode="&#x09;" horiz-adv-x="479" />
<glyph unicode="&#xa0;" horiz-adv-x="479" />
<glyph unicode="!" horiz-adv-x="686" d="M295 119q0 45 48 79.5t93 34.5q41 0 79 -42t38 -85q0 -47 -43 -89t-90 -42q-51 0 -88 45.5t-37 98.5zM309 1225q0 55 35 103t86 48t96 -94q37 -82 37 -141q0 -27 -8 -80t-8 -75.5t-27 -184.5q-12 -94 -26 -189q-16 -111 -39 -184q-8 -23 -13 -35q-12 -20 -24 -22 q-12 0 -17 8q-2 6 0 18q2 16 2 19q0 14 -10 46t-12 48q0 10 4 55q0 31 -9 90.5t-9 87.5q0 8 2 25v23q0 4 -15 90q-10 18 -22 57q-25 135 -23 287z" />
<glyph unicode="&#x22;" horiz-adv-x="1064" d="M182 1329q0 113 113 113q119 -1 119 -189q0 -82 -17 -172q-23 -133 -63 -133q-35 0 -37 107q0 39 -57.5 102.5t-57.5 171.5zM643 1313q2 129 111 129q116 0 118 -150q2 -100 -10 -190q-18 -154 -69 -154q-33 0 -33 82q0 63 -58.5 130t-58.5 153z" />
<glyph unicode="#" horiz-adv-x="1368" d="M49 418l19 110h276l92 332h-330l17 113h342l129 442h117l-129 -442h358l129 442h117l-129 -442h258l-19 -113h-268l-90 -332h319l-18 -110h-332l-125 -441h-118l127 441h-359l-127 -441h-119l127 441h-264zM461 528h360l90 332h-358z" />
<glyph unicode="$" horiz-adv-x="1015" d="M76 260q0 39 35 39q10 0 26.5 -8t20.5 -10q53 -16 105 -58.5t75 -91.5q8 -18 44 -40.5t56 -22.5q4 0 33 49q29 10 29 76q0 115 -2 149q0 10 -5.5 31.5t-5.5 32.5q0 14 5.5 40.5t5.5 38.5q0 63 -9 80q-2 2 -59 66q-14 6 -45 22q-68 45 -133.5 90t-91.5 95q-35 61 -35 161 q0 63 20 129q4 14 54 70q14 23 45 62q25 16 73 49q78 53 164 65q4 25 8 74q14 0 41 27q4 12 21 12l8 -2l2 -2l4 -2q4 -33 47 -76q10 -4 29 -41q49 -10 66 -2q43 0 110 -45q68 -125 68 -209q-4 -4 -15 -14q0 -6 -4 -15l-10 21q-8 0 -25.5 6t-31.5 6h-6q-74 43 -160 102 q-2 6 0 7v-2q0 -8 -4 -11h-15q-12 -18 -34 -43v-84q0 -18 5 -51t5 -47q0 10 -8 -37q0 -14 2 -65q2 -41 0 -68q10 -20 96 -65q106 -51 117 -60q43 -31 90 -96q4 -6 26 -68q37 -100 37 -170q0 -76 -55 -162t-123 -126q-27 -8 -74 -31q-70 -39 -118 -53q0 -70 4 -103 q-8 -14 -31 -33q-6 -6 -14 -10l-13 2q0 25 -14 53q-27 0 -41 13q-6 0 -19.5 30.5t-21.5 30.5q-14 20 -117 53q-111 35 -188 119q-49 53 -49 123zM287 1055q0 -14 18 -58q29 -68 121 -116q27 -16 66 -35q10 18 10 61q0 12 -6.5 34t-6.5 32q0 27 5 69q4 51 4 72q0 31 -6 90 q-10 74 -23 80q-31 -4 -81 -42t-66 -64q-35 -59 -35 -123zM573 82q12 -4 17 -4q18 0 59 31q16 4 46 23.5t53.5 75.5t23.5 95q0 141 -145 244q-10 12 -37 26q-16 -16 -17 -59q0 -18 5.5 -52t5.5 -50q0 -6 -9 -93q2 -80 -2 -237z" />
<glyph unicode="%" horiz-adv-x="1353" d="M129 985q0 158 94 281q102 133 256 133q98 0 163 -72t65 -172q0 -256 -158 -383q-92 -74 -189 -74q-137 0 -204 129q-27 51 -27 158zM209 -61q10 35 59 94q61 74 72 90q14 47 55 131q18 14 54 47q29 33 59 98q41 80 55 103q25 33 70 100q10 20 29 60q18 18 49 57 q8 20 30 61q23 27 64 84q12 33 43 99q59 96 174 292q10 20 37 62q10 8 31 26q10 10 45 66q80 0 88 2l10 -10v-6q-25 -33 -72 -103q-8 -12 -17 -38.5t-16 -36.5q-25 -25 -65 -76q-8 -10 -19.5 -35t-19.5 -37q-23 -31 -66 -94q-31 -63 -100 -187q-14 -18 -43 -55 q-31 -55 -100 -162q-18 -20 -53 -63q-18 -37 -60 -111q-25 -33 -72 -100q-16 -33 -51 -96q-57 -82 -157 -260q-68 0 -84 -9zM270 954q0 -182 111 -182q12 0 57 27q61 37 90 112q18 45 35 146q12 74 12 80q0 199 -108 198q-92 0 -150 -149q-47 -121 -47 -232zM782 207 q0 45 9 133q25 123 118 217q102 98 221 98q102 0 168 -88q60 -82 60 -188q0 -158 -90 -285q-100 -143 -252 -143q-104 0 -170 75.5t-64 180.5zM926 229q0 -203 108 -202q14 0 47 18q70 41 111 154q33 92 33 190q0 197 -111 197q-25 0 -61.5 -25.5t-46.5 -48.5 q-31 -33 -58 -135q-23 -90 -22 -148z" />
<glyph unicode="&#x26;" horiz-adv-x="1378" d="M100 307q0 20 15 55q18 45 20 56q-6 18 -4 49q10 20 36 40.5t34 31.5q14 31 61 82q35 14 100 45q-14 23 -43 59q-29 16 -75 66q-20 41 -21 83q0 119 85 212.5t202 93.5q90 0 176 -74q78 -66 78 -135q0 -31 -31 -101q-12 -31 -51 -86q-8 -6 -107 -73q23 -8 81.5 -43 t86.5 -66q14 -29 54 -86q20 -18 55 -57q14 -33 41 -88q10 35 37 98q16 18 41 61q6 33 28 95q12 0 29 10q8 25 10 108q0 37 -4 41q-12 10 -55 27q-35 14 -35 27q0 10 10.5 19t20.5 7q29 0 74 -2q16 -10 51 -22q16 -2 32.5 3t20.5 5q-14 -2 72 -8q41 -4 41 -37q0 -20 -37 -29 q-57 -12 -58 -12q-8 -8 -24 -19q-12 -2 -29 -12q-6 -27 -20 -72q-6 -16 -23 -47q-12 -8 -28 -28q-2 -20 -15 -66q-16 -20 -45 -65q-14 -51 -45 -146q18 -51 68 -123q10 -20 30 -53q35 -41 99 -41q37 0 82 41q16 2 45 12q6 4 15 17.5t15 13.5q25 0 25 -27q0 -18 -35 -57 q-8 -20 -29 -51q-25 -18 -86 -39q-39 -12 -67 -12q-18 0 -88 39q-27 8 -76 34q-14 12 -24.5 31t-18.5 37q-18 18 -43 55q-12 -25 -41 -63q-29 -29 -130 -81t-198 -52q-133 0 -266 71q-98 53 -98 84q0 6 4 31q4 20 0 35q-25 84 -25 98zM250 260q4 -23 16 -43q16 -10 49 -35 q12 -27 62 -73q74 -41 180 -41q135 0 256 168q-25 47 -76 137q-23 25 -71 78q-25 35 -86 102q-23 10 -72 37q-25 18 -76 49q-20 -12 -50 -51t-42 -49q-27 -8 -68 -43q-20 -39 -20 -134q0 -10 -2 -55q-2 -29 0 -47zM338 946q0 -100 102 -170q31 -8 84 -28q133 63 133 190 q0 63 -2 68q-20 41 -66 71.5t-91 30.5q-59 0 -109.5 -50t-50.5 -112z" />
<glyph unicode="'" horiz-adv-x="518" d="M139 1307q2 135 111 135q121 -1 121 -189q0 -41 -11 -131q-12 -98 -22 -127q-16 -43 -51 -47q-37 0 -37 51q0 8 3 29t1 33q0 59 -57.5 111.5t-57.5 134.5z" />
<glyph unicode="(" horiz-adv-x="581" d="M90 502q0 467 270 813q39 55 101 123q31 -7 74 -25q-12 -14 -91 -143q-199 -330 -198 -785q0 -395 157 -680q27 -51 54 -100q31 -59 63 -94l-2 -19q2 -6 -3 -19t-3 -19l-57 4q-365 420 -365 944z" />
<glyph unicode=")" horiz-adv-x="575" d="M51 1407q27 18 70 31q369 -393 371 -946q0 -219 -48 -359q-121 -350 -260 -508q-10 -12 -56 -40.5t-62 -33.5l2 5q0 4 -5.5 14t-3.5 16q0 12 2 17q139 229 203 415q76 223 74 459q-4 451 -201 783q-29 49 -86 147z" />
<glyph unicode="*" horiz-adv-x="788" d="M182 1124q2 14 18.5 34t28.5 20q39 -2 131 -13q-39 41 -98 90q-2 23 14.5 58t30.5 43q27 18 121 -113q12 49 23 107q16 12 55 16q37 4 53 -4q8 -4 8 -23q0 -51 -59 -168q51 14 123 39q18 -10 42.5 -40t24.5 -48q0 -35 -161 -49q39 -68 55 -112q2 -6 -10.5 -27t-20.5 -27 q-12 -4 -37 0q-27 6 -32 17q-18 41 -54 116q-31 -59 -78 -122q-6 -4 -30 -5q-23 0 -31 5q-25 20 -25 57q0 6 2 10q20 27 58 80q-68 0 -121 8q-8 2 -20.5 21.5t-10.5 29.5z" />
<glyph unicode="+" horiz-adv-x="1183" d="M61 535v112h474v477h110v-477h477v-112h-475v-478h-112v478h-474z" />
<glyph unicode="," horiz-adv-x="483" d="M70 -248q0 2 14 74v2q0 4 53 56.5t53 97.5q0 18 -8 36q-6 12 -30.5 25.5t-24.5 34.5q0 63 12 92q27 61 117 63q51 0 68 -16q20 -8 30 -45l8 -8q25 -72 25 -94q0 -20 -6 -43q-20 -78 -45 -101q-121 -104 -129 -114q-63 -66 -111 -70z" />
<glyph unicode="-" horiz-adv-x="724" d="M59 346q0 8 38 70.5t46 66.5q12 6 43 0q41 0 123 6.5t121 6.5q18 0 55 -2t56 -2q25 0 53.5 15t44.5 15q29 1 29 -30q2 -66 -72 -140q-6 -12 -27 -33q-6 -2 -24 -2q-12 0 -38 5.5t-40 5.5q-27 0 -80 -5.5t-80 -5.5q-16 0 -51 3.5t-53 3.5t-49 -10.5t-45 -10.5 q-49 -2 -50 43z" />
<glyph unicode="." horiz-adv-x="483" d="M143 109q0 39 42 79.5t83 40.5q72 0 117 -67q12 -15 12 -60q0 -119 -131 -120q-49 0 -86 38.5t-37 88.5z" />
<glyph unicode="/" horiz-adv-x="1644" d="M143 -160q8 18 121 199q18 47 62 133q14 20 39 59q37 72 115.5 210.5t221.5 385.5q14 35 46 103q12 20 38 63q51 104 164 310q23 33 66 102q51 39 59 39q23 0 72 -37q-35 -63 -105 -193q-18 -29 -52 -86t-99 -176q-33 -66 -100 -192q-57 -104 -181 -307q-18 -37 -57 -113 q-6 -12 -68 -111q-16 -35 -49 -100q-100 -168 -151 -276l-62 -48z" />
<glyph unicode="0" d="M66 651q0 145 32 279q29 123 115 241q94 133 201 175q61 23 151 22q195 -2 332 -278q0 -4 39 -160q6 -12 18 -37q19 -79 19 -188q0 -463 -219 -631q-16 -18 -54 -47q-111 -55 -170 -56q-199 0 -303 113q-16 25 -47 74q-115 158 -114 493zM268 840q0 -55 2 -47 q0 -291 11 -385q33 -260 155 -322q51 -27 80 -27q33 0 78 37q86 72 119 164q23 59 39 199q12 120 10 372q-2 12 -12 113q-6 14 -15 43q-39 289 -211 289q-82 0 -125 -52.5t-88 -183.5t-43 -200z" />
<glyph unicode="1" d="M197 16l6 25l-4 6q0 16 61 29q78 18 84 20q43 23 55 64q6 20 7 86q0 20 4 64t4 67q0 27 -3 75t-3 68q-2 27 4 72q4 53 6 72q0 8 -6 26.5t-6 24.5q0 41 2 106q2 82 4 109q0 18 3 56t3 58q0 78 -4 93q-6 4 -27.5 10t-24.5 4q-39 0 -112 -4q-16 4 -31.5 7t-15.5 28 q0 8 10 20t102 41q59 18 119 37q23 10 72 29q6 2 28.5 19.5t38.5 17.5q37 0 39 -11q2 0 7.5 -10t5.5 -14q10 -10 14 -27q0 -39 -13.5 -122t-11.5 -126q0 -18 -2 -49v-51q0 -4 5.5 -12.5t5.5 -10.5l-2 -376q-2 -35 -5.5 -107t-3.5 -108q0 -88 9 -125q14 -55 65 -105 q6 -8 86 -26q70 -14 66 -37l4 -2q-4 -33 -43 -37q-55 0 -164 4t-160 4q-31 0 -90 -5t-90 -5q-78 0 -59 2q-31 10 -31 20z" />
<glyph unicode="2" d="M86 45v4q33 51 94 115q51 53 103 106q31 35 127 160q27 25 73 82q92 160 127 307q10 49 21 66v4q0 84 -13 102q0 -4 -6 39q-25 31 -43 72q-45 29 -106 47h-8l-19 -4q-39 -8 -35 -8q-61 -35 -79 -119q0 -14 12 -35q6 -6 6 -35q0 -16 -29.5 -39.5t-46.5 -29.5q-29 4 -35 28 q-31 33 -30 54q-6 20 -19 61q0 25 6 70q6 12 21 36q29 33 59 80q10 12 31 39q96 53 203 53q55 0 92 -20q39 -27 78 -53q8 -4 26 -10q49 -23 84 -93q31 -61 31 -123q0 -16 7 -47.5t9 -48.5q0 -27 -14 -63q-20 -51 -22 -64q-6 -20 -25 -49q-23 -37 -27 -49 q-45 -98 -217 -287.5t-174 -222.5q172 -8 291 -6q176 2 248 139q23 18 37 19q28 0 28 -29q0 -12 -52 -147.5t-58 -145.5q-14 -16 -37 -16q-72 0 -215.5 6t-214.5 6q-27 0 -74 -6t-68 -6q-25 0 -49 6q-16 -4 -47 -2q-33 2 -39 12l-6 4q-6 43 -6 41z" />
<glyph unicode="3" d="M104 176q0 29 26 56.5t56 27.5q96 -2 117 -106q0 -4 5 -13.5t5 -15.5q-4 -12 -4 -21l29 -4q45 -33 78 -32q59 0 153 45q156 76 156 350q-14 78 -96 160q0 4 -12.5 11t-12.5 9q-29 39 -53 51q-12 6 -94 31l-21 6h-63q-66 0 -75 8.5t-9 24.5q0 39 24 61q51 8 103 17 q59 16 131 45q35 35 88 90q0 8 12 39q10 23 10 39q0 2 -10 42t-8 42q-25 20 -50.5 40.5t-88.5 20.5l-8 6l-50 -20l-18 -4q-39 -8 -35 -8q-6 -2 -59 -58q-57 -27 -78 -26q-27 0 -35 38l19 37q29 33 59 80q10 12 31 39q96 53 202 53q55 0 93 -20q39 -27 77 -53q8 -2 29 -11 q115 -51 115 -176q0 -63 -15 -92q-49 -96 -133 -143l-32 -47q41 -14 40.5 -15.5t2.5 -5.5q47 -14 106 -41q123 -69 123 -227q0 -53 -8 -98q-8 -12 -17 -39q-18 -82 -90 -172q-27 -35 -82 -99q-145 -125 -329 -125q-115 0 -199 43q-104 55 -105 160z" />
<glyph unicode="4" d="M66 399q-2 4 5 39t7 37q0 29 28.5 62.5t34.5 54.5q53 86 152 229q12 16 39 47q63 66 69 74q66 127 76 143q41 61 115 117q2 0 8 12.5t10 12.5q2 -2 8 0q10 0 33 39q14 25 29 51q27 16 33 2q20 -43 22 -55h2q2 0 7.5 -64.5t7.5 -66.5q2 -35 8 -99q-4 -78 -6 -233 q0 -20 -6.5 -88t-6.5 -101q0 -61 17 -82q2 -27 33 -26q2 0 6 2h6q4 -2 14 -2q14 0 47 6t41 6q10 0 27.5 -8t17.5 -16v-3q-6 -27 -10 -55q-8 -53 -37 -59q-20 -4 -45 2q-14 -6 -72 -21q-4 -2 -38 -2q0 -145 8 -177t61 -85q6 -8 86 -26q70 -14 66 -37l4 -2q-4 -33 -43 -37 q-55 0 -153.5 4t-149.5 4q-31 0 -90.5 -5t-90.5 -5q-78 0 -59 2q-31 10 -31 20l-8 6l6 25l-4 6q0 16 62 29q78 18 84 20q43 23 55 64q6 20 8 86q0 35 2 102q-53 0 -143 -2q-55 6 -56 6q-10 0 -31.5 -2t-31.5 -2h-125l-8 6h-51q-18 2 -37 4zM201 500q12 -8 20 -8q25 0 77 6 t81 6l119 -4q59 -2 63 18q0 16 -4 49t-4 49q0 23 10 78q10 49 8 80q0 12 -4 40t-4 40v31q2 20 2 30q0 6 -6 80q-10 0 -51 -55q-18 -25 -72 -109q-16 -29 -53 -67q-45 -49 -55 -66q-43 -59 -127 -198z" />
<glyph unicode="5" d="M104 176q0 29 26 56.5t56 27.5q96 -2 117 -106q0 -4 5 -13.5t4 -15.5t26 -25q45 -33 78 -32q59 0 153 45q156 76 154 352q-2 96 -66 199q-18 29 -45 67q-45 33 -94 41l-14 -4q-29 6 -62 6q-10 0 -29.5 2t-29.5 2q-49 0 -43 -2q-31 -10 -51 -10q-8 0 -25 -16q-16 0 -16 12 q0 59 35.5 276t56.5 258l10 2q4 6 53 7q59 6 103 16q4 2 121 12q72 6 188 56q20 6 51 12q14 0 15 -60q0 -10 -2 -27.5t-2 -25.5q0 -35 -27 -76q-92 -51 -117 -47q-6 -2 -31 -2q-39 0 -208 -41q-25 -2 -74 -14q-35 -35 -39 -45q-12 -63 -27 -141q6 0 19 -9q14 -2 39.5 2.5 t36.5 4.5q41 -4 120 -5q18 -10 68 -20q16 -8 55 -21q55 -18 96 -63l70 -86q14 -12 39 -45q37 -100 37 -174q0 -53 -8 -98q-8 -12 -17 -39q-18 -82 -90 -172q-27 -35 -82 -99q-145 -125 -329 -125q-115 0 -199 43q-104 55 -105 160z" />
<glyph unicode="6" d="M78 557q0 166 78 326q23 31 65 94q27 45 68 106q227 260 436 260q8 0 34.5 4.5t41.5 4.5q27 0 33 -14.5t8 -12.5q10 -35 -56 -49q-102 -23 -108 -27q-215 -111 -309 -327q-12 -27 -33 -80q-4 -31 -17 -92q-10 -20 -20 -66q0 -8 4 -16q47 25 92 49q27 10 107 24 q96 16 96 17q29 0 76 -13q197 -47 254 -192q30 -80 30 -113q0 -25 -7 -73t-7 -70q0 -37 -45 -111q-78 -127 -149 -153q-18 -12 -60 -33q-106 -29 -182 -31q-102 -2 -168 47q-37 23 -109 82q-35 39 -74.5 113t-50.5 123q-4 35 -16 106.5t-12 116.5zM301 432q0 -12 6 -30.5 t8 -24.5q14 -125 84 -211q80 -96 199 -94q45 0 98 34q84 66 84 211q0 74 -55 154q-49 72 -119 113q-59 35 -143 34q-18 0 -78 -22q-20 -23 -59 -76q0 -18 -25 -61v-27z" />
<glyph unicode="7" d="M59 1057q0 18 43 135q16 55 33 113q29 72 78 71q104 -8 311 -20q10 0 28.5 4t27.5 4q-25 -2 176 -2q49 0 108 2q23 4 68 8q20 0 26 -12l13 -8q0 -4 4 -13l2 -10q-8 -29 -21 -43q-14 -20 -30 -39q-6 -8 -62 -102q-23 -51 -71 -150q-41 -74 -72 -112q-18 -23 -33 -58 q-20 -53 -24 -61q-16 -27 -46 -82q-8 -33 -28 -94q-16 -27 -40 -84.5t-56 -177.5q-2 -20 -9 -64q-16 -66 -16 -78l2 -14q0 -2 10 -37q0 -4 17.5 -29.5t19.5 -27.5q0 -33 -12 -51q-12 -43 -64 -43h-90q-51 6 -51 43q0 2 -7 17t-5 19v74q0 70 30 164q29 80 58 158 q18 37 47 112q25 43 61 111q12 37 43 106q20 29 56 88q70 150 149 234l2 8q-4 0 9.5 23.5t13.5 29.5q0 4 -2 5q0 14 -74 -5q-193 23 -281 17l-32 14l-11 -6q-127 -12 -178 -80q-18 -27 -61 -78l-4 -2q-10 -10 -31 -10l-10 2l-8 6q-6 25 -7 25z" />
<glyph unicode="8" d="M92 346q0 37 10 57q0 12 7 15q2 35 98 144.5t96 112.5t18.5 12t18.5 13q2 4 -16.5 12.5t-18.5 12.5v6q-31 25 -61 49q-39 35 -49.5 61.5t-29 54.5t-18.5 48q-6 14 -16 29v22q-2 14 -2 21q0 78 47 161t115 123q20 6 59 23q100 45 166 45q137 0 279 -88h10q37 -20 67.5 -87 t30.5 -114q0 -96 -53 -170q-27 -35 -127 -129q-18 -16 -49 -30l43 -23q12 -6 31.5 -22.5t29.5 -22.5q76 -39 121 -131q41 -82 45 -178v-8q0 -45 -18 -105q-23 -74 -54 -88q-57 -86 -165 -149q-27 -6 -76 -19q-29 -14 -103 -29q-82 -2 -118.5 10.5t-108.5 34.5q-39 10 -84 56 q-14 12 -43 35q-8 20 -29 51q-53 68 -53 184zM264 356q0 -35 6 -45q4 -96 80 -174t170 -78q102 0 175 70t73 172q0 141 -133 225q-25 14 -72 47q-39 18 -112 66q-18 -8 -50 -29.5t-47.5 -31t-25.5 -39.5q-63 -111 -64 -183zM297 1092q0 -106 104 -187q49 -37 201 -106 q20 6 33.5 26.5t17.5 24.5q29 20 57.5 85.5t28.5 106.5q0 104 -55 173t-158 69q-92 0 -157 -47q-72 -53 -72 -145z" />
<glyph unicode="9" d="M80 911q2 133 10 158q6 4 14 12q6 29 33 80q12 18 39 53q143 160 334 160q82 0 112.5 -9t100.5 -52q16 -6 47 -27q20 -18 52 -56t83 -122q51 -131 51 -358q0 -12 -5 -40t-5 -44q0 -63 -59 -201q-55 -125 -109 -197q-57 -78 -162 -153q-78 -57 -131 -74q-2 0 -77 -31 q-45 -18 -80 -18q-92 0 -144 16q-16 12 -45 45l-2 6q0 6 6 13v-2l-2 6q0 14 54 20q109 10 221 37q29 6 88 40t86 54q10 14 28 41q55 68 113 264q12 43 12 49.5t9 63.5q-2 6 -31 -13.5t-31 -19.5q-14 0 -51 -20q-43 -25 -57 -29q-55 -16 -121 -16q-82 0 -62 2q-31 0 -46 10 t-31 21q-35 10 -97 47q-147 137 -145 284zM266 1024q0 -23 13 -59q20 -111 32 -138q25 -53 95 -106q16 -18 61 -47q31 -10 119 -8q76 2 119 86q34 69 34 151q0 127 -69 248q-80 137 -199 139q-31 0 -100 -39q-41 -23 -57.5 -46t-32 -86.5t-15.5 -94.5z" />
<glyph unicode=":" horiz-adv-x="483" d="M145 121q0 6 23 39q45 68 111 67q43 0 82.5 -44t41.5 -87q0 -10 -14 -37q-35 -82 -125 -84q-51 0 -85 46.5t-34 99.5zM145 659q0 47 42 82t92 35q43 0 80.5 -42t37.5 -85q0 -23 -23.5 -57.5t-43.5 -46.5q-31 -18 -78 -19q-37 0 -72 47.5t-35 85.5z" />
<glyph unicode=";" horiz-adv-x="483" d="M72 -248q0 2 14 74v2q0 4 53.5 56.5t53.5 97.5q0 18 -9 36q-6 12 -30.5 25.5t-24.5 34.5q0 63 12 92q27 61 117 63q51 0 68 -16q20 -8 30 -45l9 -8q25 -72 24 -94q0 -20 -6 -43q-20 -78 -45 -101q-121 -104 -129 -114q-63 -66 -111 -70zM106 670q0 37 43.5 70.5 t81.5 33.5q47 0 86 -44t39 -91q0 -37 -44 -78t-83 -41q-53 0 -88 47t-35 103z" />
<glyph unicode="&#x3c;" horiz-adv-x="1196" d="M61 537v106l1057 475v-125l-907 -407l907 -398v-118z" />
<glyph unicode="=" horiz-adv-x="1124" d="M61 356v105h990v-105h-990zM61 715v106h990v-106h-990z" />
<glyph unicode="&#x3e;" horiz-adv-x="1220" d="M82 70v118l909 396l-909 409v125l1059 -477v-106z" />
<glyph unicode="?" horiz-adv-x="837" d="M166 1198q0 6 8 21.5t14 17.5q6 10 34 32.5t36 24.5q23 0 83 10.5t93 10.5q96 0 199 -96q18 -12 51 -39q47 -50 51 -152q0 -12 -4 -32.5t-4 -26.5q-4 -59 -18 -88q-6 -12 -50 -76q-14 -25 -51 -72q-49 -31 -139 -112q-55 -66 -57 -70q-16 -27 -31 -90q-4 -23 -10 -47 q-6 -35 -23 -35q-6 0 -12 12q-31 139 -31 168q0 25 121 167t121 232q0 39 -10 111q-43 109 -168 109q-14 0 -45 -10.5t-48 -10.5q-8 0 -25.5 -6t-27.5 -6q-4 0 -13 8t-15.5 9t-6.5 2t-6 14q-16 4 -16 20zM240 102q0 55 35.5 94.5t91.5 39.5q31 0 67.5 -25t48.5 -54.5 t4 -66.5q0 -39 -44 -76t-85 -37q-45 0 -81.5 40t-36.5 85z" />
<glyph unicode="@" horiz-adv-x="1941" d="M121 489q0 393 278.5 671t679.5 278q334 0 536 -188.5t202 -497.5q0 -272 -156 -473t-361 -201q-92 0 -134 41t-42 139q0 29 4 64q0 2 -2 4q-172 -250 -364 -250q-102 0 -162.5 78.5t-50.5 207.5q23 270 188 453q152 170 330 170q160 0 197 -166l4 4l24 92l148 3 l-156 -556q-16 -59 -16 -106q0 -104 75 -121q135 0 275 199q143 207 143 434q0 266 -186 442t-479 176q-371 0 -621 -265t-250 -660q0 -340 223.5 -553t577.5 -213q449 0 711 381l43 -19q-119 -195 -321 -307t-441 -112q-395 0 -646 241.5t-251 609.5zM700 334 q0 -164 131 -164q135 0 256 178q136 199 136 414q0 78 -41 128t-105 50q-137 0 -262 -229q-115 -209 -115 -377z" />
<glyph unicode="A" horiz-adv-x="1302" d="M49 55q33 25 47 37q61 14 94 72q18 31 113 315q29 59 76 174q82 211 127 375q8 31 35 78q31 57 39 78q20 74 51 155l4 15q2 10 10 26q103 72 137 72h2q35 -2 35 -25q0 -20 -2 -63t-2 -66q0 -20 16 -45q18 -33 23 -45q6 -20 20 -59q2 -20 11 -57l51 -113q18 -55 59 -166 q27 -53 70 -160q4 -33 18 -94q18 -35 47 -106q84 -272 117 -310q25 -29 72 -57.5t49 -32.5t16 -18q-14 -39 -100 -39q-45 0 -205 2q-64 1 -116 1t-91 -1q-20 20 -20 33q0 27 61.5 48t65.5 27q20 16 20 37q2 4 5.5 10.5t3.5 8.5q0 27 -25 86q-18 41 -35.5 85l-52.5 132 q0 2 -3 7t-5 5q-76 20 -78 21h-182q-121 -2 -183 -2q-57 -47 -92 -246q0 -4 -8 -31q-8 -18 -6 -31q0 -35 33 -77q39 -14 78 -27q51 -20 51 -49q0 -35 -39 -35q-25 0 -76 2t-78 2q-14 0 -45 -4t-47 -4q-27 0 -74 2q-61 4 -78 4q-22 0 -22 25q0 16 8 28zM477 623l8 -7 q90 -4 269 -4q63 1 92 15q-27 59 -51 139q-23 39 -60 121q-16 55 -30 112q-23 82 -48 95q-4 4 -4 8q-16 -10 -57 -135q-25 -78 -49 -156q-45 -129 -70 -188z" />
<glyph unicode="B" horiz-adv-x="1216" d="M84 1382q0 45 66 48q20 0 57 -5.5t53 -5.5t49 3t47 3q23 0 88 -2h91q20 0 64 5.5t69 5.5q18 0 55 -5.5t55 -5.5q33 0 62 -6q20 -4 51 -14q41 -16 55 -21q29 -8 88 -32q33 -20 69 -87t44 -110q4 -25 4 -109q0 -70 -47 -118q-6 -4 -19 -19q-33 -49 -57 -62.5t-45 -23.5 q-29 -16 -35 -33q23 -20 79 -43.5t77 -39.5q55 -43 98 -109q8 -4 17 -21q30 -63 34 -235q0 -33 -16 -54.5t-33 -41.5q-29 -55 -76 -123q-129 -104 -254 -105q-12 0 -30 -6q-27 -8 -33 -10q-47 -4 -141 -4q-63 0 -107 2q-4 0 -10 4t-8 4h-105q-70 -2 -104 -2q-18 0 -51 -4 t-49 -4q-6 0 -21.5 2t-24.5 2q-63 0 -63 -1l4 -1q-35 0 -41 22q-2 2 -2 13q0 39 41 39q4 2 31 2q37 0 81 34.5t54 71.5v105q0 25 4 71.5t4 69.5q0 29 -5 83t-5 75q0 6 8 18q0 10 2 35v35q0 25 -3 78t-3 81q0 18 2 101q2 63 2 102q0 6 6 11.5t6 9.5q0 27 -7 77t-9 68 q-6 74 -27 98q-25 33 -92 33q-12 0 -45 11.5t-41 20.5t-8 19zM498 313q0 -8 5 -23.5t5 -21.5q18 -180 186 -180q29 0 56 10q43 16 49 19q119 31 150.5 58.5t60.5 133.5q18 68 18 84q0 6 -15.5 78t-17.5 76q-23 51 -102 102q-10 20 -57 53q-12 2 -39 9q-10 6 -35 14l-2 2 q-6 0 -18.5 -3t-20.5 -3q-18 0 -58 2t-61 2l-6 4h35l-82 -12q-16 -14 -35 -45q-8 -31 -8 -150q0 -18 6 -55t6 -55q0 -10 -7 -16.5t-7 -8.5q-6 -31 -6 -74zM498 1067q2 -6 3 -19.5t1 -19.5v-2q14 -72 14 -94l-12 -105l4 -12h59q39 -2 60 -2q29 0 80 16.5t79 16.5q18 0 39 12 q103 59 103 219q0 115 -87 186.5t-204 71.5q-31 0 -92 -12q-4 -10 -17 -23q-18 -8 -22 -34q-4 -18 -2 -52l4 -47q0 -12 -3 -43.5t-1 -48.5z" />
<glyph unicode="C" horiz-adv-x="1206" d="M61 598q0 27 3.5 79t3.5 79q2 80 49 205q33 86 86 161q12 10 29.5 33t56.5 64q35 31 97.5 77.5t227.5 94.5q139 39 322 39q20 0 49 5t57 5q23 -6 66 -21q80 -11 100 -33q16 -19 16 -55q0 -8 -1 -16q-4 -53 -2 -58q20 -27 24 -49q6 -14 4 -24q0 -2 6.5 -20.5t4.5 -22.5 q4 -45 4 -113l-50 -2q-14 0 -16 24.5t-12 41.5q-20 27 -90 94q-78 76 -92 82q-57 47 -183 47q-16 0 -73 -10q-90 -16 -113 -31q-41 -33 -84 -64q-10 -4 -35 -20q-20 -25 -61 -72q-31 -25 -74 -80q-4 -23 -14 -65q-16 -31 -38 -93.5t-22 -160.5q0 -133 29 -221 q31 -94 113 -191q25 -31 83 -78q10 -14 39 -34q18 -14 57.5 -37t172.5 -27q68 -2 57 -4q19 -1 35 -1q59 0 74 17q12 4 28 17q4 10 26.5 14t27.5 12q4 2 17 2t30.5 27t29.5 27q4 0 21.5 26.5t21.5 22.5q5 2 11 2q38 0 63 -90q-4 -33 -39 -60q-14 -25 -51 -57 q-96 -111 -444 -111q-176 0 -299 93q-39 18 -109 69q-82 86 -125 170q-31 43 -74 137q-2 12 -24 74q-16 45 -17 80z" />
<glyph unicode="D" horiz-adv-x="1431" d="M86 27q0 16 66 59q16 0 48.5 13.5t52 13.5t26.5 30q23 35 28 277q0 20 -6 63t-6 64q0 68 6 131q0 6 4 17.5t4 17.5q0 14 -2 42.5t-2 43.5q0 12 2 34.5t2 32.5q0 8 -3 23.5t-3 21.5q2 20 2 62q0 18 -8 52t-8 50q0 14 4 43t4 43q0 51 -18 92q-25 53 -68 54l-45 10 q-27 6 -37 19.5t-23 31.5q0 45 66 45q35 0 104.5 -7t104.5 -7q47 0 143.5 6t145.5 6q86 0 260 -8q16 0 55 -4q80 -14 227 -109q35 -18 99 -63q39 -37 88 -129q29 -37 76 -117q2 -6 8 -70q6 -20 14 -63q18 -167 19 -167v1q0 -23 -29 -156q-20 -96 -35.5 -132t-71.5 -118 q-14 -27 -51 -75q-16 -18 -53 -31q-45 -16 -57 -25q-16 -18 -56 -49q-8 -4 -67 -22q-31 -14 -92 -39q-154 -39 -291 -39q-27 0 -88.5 3t-92.5 3q-20 0 -65 -6t-66 -6q-23 0 -67.5 6t-67.5 6q-25 0 -74 -5t-73 -5q-33 0 -33 35zM494 852q0 -23 5 -67t5 -64q0 -16 -3 -49 t-3 -49q0 -29 5 -88.5t5 -90.5q0 -20 -5 -59t-5 -57q0 -123 43 -176q47 -59 166 -60h28l13 2l-3 -2q158 0 244 49q14 12 43 35q27 12 72 41q12 10 56 75.5t54 86.5q16 35 25 88q14 80 16 90q31 125 31 135q0 23 -6 47.5t-6 28.5q-6 117 -49 240q-6 16 -25 36q-25 27 -29 33 q-66 98 -88 120t-125 79q-16 8 -113 22.5t-126 14.5q-195 0 -209 -88v1q2 0 2 -85q0 -25 -6 -72t-6 -65v-127q0 -4 -3 -12.5t-3 -12.5z" />
<glyph unicode="E" horiz-adv-x="1193" d="M78 29q12 23 12 26q18 12 84 29q53 14 76 37q29 12 29 88q0 4 4 9t4 7q0 92 -6 168q-2 14 -9 58q-6 37 -6 59q0 31 6.5 89t6.5 87q0 -4 -7 27q0 72 -6 102q12 37 13 166q0 23 -5.5 71t-5.5 74q0 141 -53 166q-10 14 -63 41q-51 14 -50 29q0 63 99 63q104 0 311 -5t309 -5 q39 0 118 4t118 4q14 0 50 -16t36 -27v-73q-2 -49 -2 -77t-17 -48q-4 -16 -7 -21.5t-9 -10.5t-18 -9q-16 0 -94 88t-152 88h-123q-82 -2 -123 -2q-27 0 -42 -12.5t-26 -12.5l-2 -6q-57 -19 -57 -70q0 -21 6 -58q6 -36 6 -56q-2 -94 -2 -166q0 -4 -2 -12.5t-2 -14.5 q0 -10 4 -39q0 -8 -2 -14q0 -18 8 -29q16 -10 43 -10q14 0 41 4t39 4l4 -6q143 0 140 0q92 4 129 31q16 12 32.5 45t28.5 43q4 18 21 55q2 2 8 2q25 0 37 -20q-10 -33 -10 -173q0 -35 1 -77v-86l3 -33v-10q0 -12 -14.5 -40t-24.5 -28v-4q-10 6 -27 21q-4 2 -8 10 q-8 31 -35 82q0 14 -6 35q-14 12 -64.5 28.5t-70.5 16.5q-8 0 -24.5 -5t-24.5 -5q-25 0 -68 6q-49 6 -70 6q-18 0 -48 -12.5t-36 -28.5q-2 -23 -6 -66q-2 -6 -7 -22.5t-5 -24.5q0 -16 9 -60q7 -36 7 -57v-8q-2 -18 -2 -53q0 -33 5 -95.5t5 -92.5q0 -16 34 -50t55 -41 q39 -8 79 -8q16 0 49 -4t48 -4q16 0 52 4t54 4q10 0 23 8q18 2 57 11q98 35 160 125q20 41 39 80q31 59 57 59h4q0 -2 2 -2l6 -4q31 -21 31 -41q0 -16 -4 -29q-4 -35 -31 -96q-10 -45 -37 -131q-6 -16 -6 -19q-2 -14 -12 -41q-59 -33 -109 -34q-20 6 -61 12q-4 0 -12 -2h-11 l-96 2q-41 1 -85 1t-91 -1q-29 0 -84 3t-80 3q-12 0 -39.5 -5t-42.5 -5q-12 0 -35.5 3t-33.5 3q-29 0 -88.5 -5t-90.5 -5q-8 0 -28.5 4t-32.5 2q-33 0 -51 35z" />
<glyph unicode="F" horiz-adv-x="1042" d="M68 1362q0 63 98 63q104 0 311 -5t309 -5q39 0 118 4t118 4q14 0 50 -16.5t36 -26.5v-73q-2 -49 -2 -77t-16 -48q-4 -16 -7.5 -21.5t-9.5 -10.5t-18 -9q-16 0 -94 88t-152 88h-123q-82 -2 -123 -2q-27 0 -42 -12.5t-25 -12.5l-2 -6q-58 -20 -58 -72q0 -20 6.5 -56 t6.5 -56q-2 -94 -3 -166q0 -4 -2 -12.5t-2 -14.5q0 -10 4 -39q0 -8 -2 -14q0 -18 9 -29q16 -10 43 -10q14 0 40.5 4t38.5 4l5 -6q143 0 139 0q92 4 129 31q16 12 32.5 45t28.5 43q4 18 21 55q2 2 8 2q25 0 37 -20q-9 -31 -9 -156q0 -42 1 -94v-86l2 -33v-10q0 -12 -14.5 -40 t-24.5 -28v-4q-10 6 -27 21q-4 2 -8 10q-8 31 -35 82q0 14 -6 35q-14 12 -64.5 28.5t-70.5 16.5q-8 0 -24.5 -5t-24.5 -5q-25 0 -68 6q-49 6 -70 6q-18 0 -47.5 -12.5t-35.5 -28.5q-2 -23 -7 -66v-8q0 -17 4 -65q2 -35 7 -72v-64q-2 -49 -2 -63q0 -12 3 -44t1 -48 q10 -25 18 -56q27 -29 72 -96q8 -16 26 -33q8 -8 27 -6q35 4 29 4q16 0 26 -20l-22 -31q-25 -10 -148 -10q-14 0 -44.5 2t-47.5 2q-23 0 -67.5 -3t-65.5 -3q-18 0 -55 3t-53.5 2t-47.5 5q-4 2 -4 21q4 14 40 20t46 19q18 25 23 45l2 12q31 31 35 131q0 4 3 13t3 16 q0 8 -3 23.5t-3 23.5q0 10 2 32v31q-12 121 -14 121l-1 -4q0 31 6.5 89t6.5 87q0 -4 -6 27q0 72 -7 102q12 37 13 166q0 23 -5.5 71t-5.5 74q0 141 -53 166q-10 14 -63 41q-51 14 -49 29z" />
<glyph unicode="G" horiz-adv-x="1396" d="M68 690q0 10 4 28.5t4 26.5q8 127 33 207q2 10 20 31q12 16 12 39q0 -4 16.5 39t42 71.5t54.5 57.5q121 131 192 170l74 24q31 18 96 43q29 2 89 9l129 18q6 0 21 -4t24 -4q10 0 27.5 2t25.5 2q45 0 115 -29q14 -4 43.5 -7t44.5 -7q8 4 14 4q8 8 25 21q20 -4 63 -13 q27 -4 63 -51q16 -8 46 -27q6 -6 6 -24q0 -25 -4 -66q-4 -47 -5 -67q0 -23 5.5 -66t5.5 -65q0 -47 -43 -47q-12 0 -27 18q-39 51 -70 125q-29 66 -55 92q-41 43 -139 82q-55 23 -94 23h-11q-234 0 -350 -86q-16 -6 -45 -29q-8 -12 -33 -33q-115 -90 -143 -295 q-4 -39 -18 -112q-16 -39 -17 -46q0 -8 5 -21t5 -19q2 -14 3 -91q0 -29 31.5 -154.5t43.5 -146.5q31 -51 95 -108q74 -68 118 -68q2 0 33 -18q74 -43 188 -43q8 0 29 -2t31 -2q92 0 155.5 42t73.5 83q2 55 4 108q2 39 2 53q0 49 -36 123q-31 12 -52 11q-45 10 -129 51 q-14 18 -16 30q4 14 22.5 21.5t34.5 13.5l6 2q12 1 25 1q28 0 63 -3q70 -4 91 -4h54q102 0 152 6q25 4 78 8q10 0 22.5 -13t12.5 -23q0 10 -8 -23q-41 -35 -90 -94q-12 -49 -13 -266q0 -8 -4 -13q-23 -43 -41 -65q0 -8 -6 -27q-66 -94 -297 -110q-14 0 -49 -7.5t-57 -7.5 q-100 0 -260 35q-51 8 -148 37q-258 106 -360 354q-27 63 -41 209q-2 10 -8 43q-4 27 -4 43z" />
<glyph unicode="H" horiz-adv-x="1591" d="M88 37q0 23 51 47q66 31 68 33q63 20 63 229q-8 27 -10 129v154q2 117 2 153q0 12 4 38t4 38q0 8 -2 25q4 106 4 159q0 172 -24 236q-27 14 -92 55q-18 2 -50 19q-6 8 -6 30q57 35 146 41h-3q0 -2 156 -2q23 0 65 5.5t62 5.5q41 0 56.5 -14.5t21.5 -14.5 q-12 -37 -11 -56.5t-32 -21.5q-41 -4 -57 -18q-33 -29 -35 -138q0 -20 4 -57t4 -53q0 -25 -6 -72t-6 -69q0 -94 94 -95q27 0 78 6.5t76 6.5q18 0 52 -2.5t50 -2.5q8 0 23 3h20q27 10 223 10q6 0 17.5 -5t19.5 -5q23 0 68 4q45 31 45 170q0 14 -6 22l-6 92q0 69 1 69l1 -3 q0 18 -4 31q0 43 -87 102q-12 8 -35.5 10t-31.5 8q-27 10 -27 52q0 32 68 32h4q14 0 55 -2h54q10 0 35.5 3t37.5 3q31 0 92.5 -3t92.5 -3q23 0 70.5 4.5t74.5 4.5q20 0 20 -27q0 -43 -96 -70.5t-108 -77.5q-2 -8 -2 -100q0 -12 -6.5 -35.5t-6.5 -36.5q0 -23 -3 -68.5 t-3 -70.5q0 -14 7.5 -44t7.5 -46q0 -33 -3.5 -101.5t-3.5 -103.5q0 -49 5.5 -147.5t5.5 -147.5q0 -23 -4.5 -69.5t-4.5 -71.5q0 -74 54 -107q25 -12 102 -30q53 -12 53 -37l2 -4q-2 -41 -120 -41q-49 0 -159 4t-167 4q-43 0 -129 -4q-39 20 -39 37q0 33 68 47q84 16 92 22 q29 23 41 111q0 8 6 28.5t6 32.5q0 14 -9 41t-9 39q0 18 5 53t5 52q-8 12 -8 96q0 18 4 78q3 34 3 56q0 11 -1 20q-17 26 -57 26h-3q-29 0 -86 -3t-86 -3q-23 0 -71 4t-72 4q-29 0 -78 -6q-55 -6 -78 -6q-14 0 -43.5 -6t-46.5 -6q-4 0 -13 4t-16 4q-16 0 -47.5 -7t-43 -7 t-11.5 -45q0 -16 -3 -46t-3 -45q0 -33 3 -98t3 -96q0 -25 -4 -78t-4 -80q0 -23 4 -47q18 -23 39.5 -47.5t46.5 -34.5q33 -8 70 -17t47 -40l2 -6q-6 -33 -82 -33q-33 0 -100.5 5t-102.5 5q-27 0 -76 -2t-73 -2q-16 0 -49 -5t-50 -5q-25 0 -51 35l2 4z" />
<glyph unicode="I" horiz-adv-x="665" d="M80 29q0 35 24 34q72 12 89 17q39 12 81 39q35 66 35 116v5q0 14 -6 40.5t-6 41.5q0 16 3 46.5t3 45.5q0 4 -2 8t-2 6q0 35 5 98.5t5 94.5q0 14 -2 42.5t-2 41.5q0 119 2 155q0 10 5 30.5t5 31.5q0 31 -6 39q-4 66 -4 194q0 143 -49 160q-27 10 -84 26q-23 4 -49.5 9.5 t-26.5 27.5q0 41 84 42q35 0 99.5 -4.5t93.5 -4.5q37 0 105.5 2t99.5 2q14 0 42.5 7.5t41.5 7.5q14 0 32 -23q4 -16 4 -21q0 -18 -41 -36q-14 -8 -45 -23q-23 -2 -46 -5t-38 -28q-18 -31 -18 -53q0 -12 4 -36.5t4 -39.5q0 -47 -9 -141t-9 -141q0 -6 5 -20.5t5 -22.5 q0 -14 -4 -43t-4 -41q0 -14 4 -44t4 -46q0 -35 -6 -154q-2 -96 -2 -156q0 -72 12 -213q6 -12 66 -57q41 -8 80 -16q53 -15 53 -50l-2 -4v-4q-17 -24 -162 -24h-12q-12 0 -37 6t-37 6q-59 0 -178 -4t-176 -4q-31 0 -31 37z" />
<glyph unicode="J" horiz-adv-x="821" d="M51 -258q0 35 25.5 69.5t58.5 47.5q33 4 49 4q33 0 64 -29l31 -31h28q14 0 29 7l8 -3q115 0 129 203q14 33 29 105q1 18 1 36q0 36 -3 70q0 10 -6.5 32.5t-6.5 35.5q0 12 2 37v34v97q-2 63 -2 94q0 18 -5 55t-5 56q0 14 4 44.5t4 47.5q0 14 -4 47t-4 51q0 39 8.5 113.5 t8.5 111.5q0 51 -25 117q-31 78 -70 86q0 2 -14 12.5t-16 10.5q-27 18 -58 47q-6 4 -16 18q-23 14 -23 21q0 22 66 22h6q20 0 61 -4t62 -4q12 0 33.5 4t31.5 4q16 1 39 1t52 -1q68 -4 90 -4q27 0 77 6t74 6q49 0 49 -39q-10 -37 -86 -47q-82 -12 -104 -41q-27 -35 -27 -59 q0 -6 3 -19.5t3 -21.5q0 -23 -5 -70t-5 -71q-4 -82 -8 -250q0 -8 2 -33v-33q-2 -45 -2 -133q0 -12 6 -42t6 -44q0 -477 -78 -608q-10 -16 -27.5 -47t-62.5 -84q-20 -14 -65 -43q-14 -16 -43 -47q-12 -8 -76.5 -34t-81.5 -28h-59q-92 0 -140 86q-2 2 -7 7.5t-5 23.5z" />
<glyph unicode="K" horiz-adv-x="1357" d="M55 1376l2 2l13 6q12 16 20 21v2q0 16 14 20q27 0 84.5 -8t85.5 -8q12 0 48 3t57 3q90 0 139 8q4 0 12 2q25 0 66 -12q20 -6 22 -10q6 -10 11 -19q0 -8 -23 -34q-39 -10 -76 -21q-45 -14 -62 -53t-17 -53q0 -4 -2.5 -14.5t-2.5 -16.5q0 -45 3 -41q4 -33 6 -47 q0 -47 -9 -119v-151q0 -10 -2 -35t-2 -39q2 -39 23 -39q8 0 18 6q41 47 97 113q92 104 161 170q27 25 60 73q45 63 55 78q20 23 43 47q27 33 27 56q0 2 19.5 34.5t17.5 34.5l-64 39q-33 12 -33 23l29 18q45 2 240 2q16 0 47.5 4t46.5 4q12 0 33 -4q2 -4 15 -5t11 -7 q12 0 12 -33v-4q-27 -10 -77 -33q-27 -18 -82 -53q-18 -6 -54 -22q-14 -20 -45 -58q-49 -41 -135 -139q-98 -150 -221 -248q-8 -16 -8 -51q0 -4 168 -182q16 -14 49 -43q31 -41 94 -119q37 -29 94 -86q8 -12 27 -37l94 -102q57 -59 107 -93q4 -6 12 -16l66 -12q43 -8 38 -41 q3 -4 3 -14q0 -29 -39 -29q-25 0 -76 5t-78 5q-16 0 -52 -5t-55 -5q-25 0 -44 11t-39 22q-37 55 -74 108q-45 68 -86 98q-23 27 -68 76q-25 33 -78 97q-33 27 -94 83q-12 16 -37 43q-10 6 -35 17q-14 25 -43 53q-8 8 -20 16q-20 -2 -53 -10q-10 -10 -13 -24q-2 -10 1.5 -31 t3.5 -29q0 -12 -5.5 -33.5t-5.5 -29.5q0 -14 5.5 -43t5.5 -41q0 -16 -11.5 -56t-11.5 -47q0 -23 8 -41q39 -84 53 -100q20 -23 99 -65q20 -25 35 -39l2 -4q-35 -27 -68 -27q-10 0 -30.5 3t-30.5 3q-18 0 -52 -4q-39 -4 -53 -4q-12 0 -33.5 4t-31.5 4q-31 0 -92.5 -3 t-90.5 -3q-63 0 -77 39q14 23 32 22q98 61 113 76q23 31 27 166q0 23 -4.5 64t-4.5 59q0 61 5.5 183t5.5 184q0 6 3 20t3 23q-4 35 -2 57q4 23 6 65q0 8 -5 26.5t-3 29.5q4 31 4 39v43q-2 29 -2 43q0 23 -22.5 94.5t-37.5 79.5q-43 26 -76 26h-2q-23 0 -51 39z" />
<glyph unicode="L" horiz-adv-x="1099" d="M39 35q0 4 4 16q127 49 147 68q48 40 48 145q0 24 9 63.5t9 61.5q0 10 -8 31.5t-8 36.5q0 78 2 233v236q0 12 6 29.5t6 25.5q2 20 2 63q0 31 -10 76t-13 66q0 37 -12 88q-12 23 -28 29q-27 16 -93 16q-25 0 -42 18.5t-17 40.5q0 31 74 31q25 0 73 -4t70 -4q55 0 166 10 t166 10q23 0 44 -14t21 -35q0 -35 -59 -43q-12 -8 -53 -8q-88 0 -88 -68q0 -12 5 -39.5t5 -42.5q0 -12 -8 -135q-1 -14 -1 -31.5t1 -39.5q2 -59 2 -72q0 -10 -3 -32.5t-3 -35.5q0 -16 5 -51t5 -53q0 -16 -6 -53t-4 -54q0 -35 2 -106q4 -4 4 -10q0 -20 -9.5 -56t-9.5 -57 q0 -72 23 -154q27 -100 98 -125q32 -10 132 -10h36h72q49 2 69 15q39 18 87.5 46.5t62.5 51.5q33 55 47 74q6 31 27 69q27 49 49 49q14 0 26.5 -20.5t12.5 -36.5l-58 -225q-4 -33 -18 -72q-25 -27 -57 -33q-8 -14 -177 -20q-111 -3 -111 -4h3q-23 0 -64 6t-61 6 q-16 0 -49 -2t-49 -2q-29 0 -88.5 3t-90.5 3q-61 0 -215 -14q-16 0 -51 -2l-18 6q-39 12 -39 41z" />
<glyph unicode="M" horiz-adv-x="1857" d="M88 1368q0 25 10 31q27 16 88 16h54q35 -2 53 -2t54 4t52 4q51 0 154 -204q8 -29 31 -84q16 -33 63 -105q12 -8 35 -31q29 -43 84 -153q100 -199 147 -258q16 -18 41 -58q4 -18 9 -34q6 -25 20 -27q37 0 64 63v2q0 12 45 95q49 90 55 104q18 43 55 133q18 51 60 156 q27 39 73 123q10 27 33 82q51 96 88 133l2 12q10 14 31 37q16 10 47 12q20 2 53 2q49 -2 51 -2q25 0 70 5.5t68 5.5q47 0 68.5 -16.5t19.5 -33.5q0 -18 -15 -28q-6 -10 -75 -11q-33 0 -63 -34.5t-36 -69.5q8 -37 9 -86q0 -33 -3 -90q-2 -63 -2 -88q0 -27 6.5 -85.5 t6.5 -88.5q0 -16 -3 -51t-3 -54q0 -31 5 -94t5 -98q0 -113 2 -140q12 -160 12 -180q0 -51 43 -76q23 -12 82 -22q45 -10 45 -25q10 -14 10 -18q0 -20 -29.5 -31.5t-56.5 -11.5t-75 6t-72 6q-51 0 -88 -6t-209 -6q-59 0 -35 -2q-18 2 -31 18q-10 10 -10 11q0 20 14 32 q0 18 68 27q82 10 123 45q12 43 12 45q0 57 -10 174t-10 176q0 35 2 138q2 84 2 135q0 41 -12 164q-8 84 -8 135q0 15 1 28q-4 -4 -12 -24.5t-16 -18.5q-14 0 -31 -28q-14 -20 -27 -41q-18 -23 -41 -74q-31 -66 -38 -80q-8 -37 -31 -102q-20 -35 -55 -106.5t-99 -211.5 q-16 -20 -41 -59q-8 -25 -24 -76q-23 -39 -70 -123q-25 -43 -47 -43q-4 0 -13.5 3t-15.5 1q-23 10 -49 84q-16 51 -33 103q-12 27 -52 76t-46 65q-12 27 -115 197q-18 43 -59 129q-29 55 -62.5 85.5t-44.5 59.5h-2q-18 0 -24 -106q-10 -186 -10 -211t-6.5 -74t-6.5 -70v-26 q0 -133 19 -201q2 -53 6 -123q10 -8 57 -31q37 -18 53 -45q2 -4 -20.5 -21.5t-26.5 -18.5t-94 -8t-102.5 -7t-46 -3t-52.5 -3q-59 0 -59 28v29l-2 2q0 -2 8 6v9q90 23 117 94q4 18 12 55q16 57 17 127q0 41 6 102l10 105v164q0 25 6 174q4 106 4 174q0 25 -22.5 99.5 t-34.5 99.5q-8 8 -27 26q-41 16 -80 33q-57 23 -57 49z" />
<glyph unicode="N" horiz-adv-x="1560" d="M86 1364q2 43 53 49q-2 0 -2 -1t84 -1q25 0 75 7t77 7q18 0 51 -30q39 -37 53 -45q43 -61 133 -187q37 -31 84 -73q31 -41 94 -117q57 -57 164 -178v-2q33 -37 95 -115l30 -49q68 -63 189 -203q18 -25 22 -25t17 25q18 6 20 149l-1 -32q-1 0 -1 211q0 4 2 12t2 14 q0 20 -3 59.5t-3 57.5q0 37 3 110.5t3 110.5q0 135 -53 176q-14 4 -41 13l-103 49q-16 10 -16 28q0 16 37 35q8 0 23.5 2t21.5 2q20 0 72 -2q45 -2 71 -2q31 0 119 6q76 2 121 3q20 0 25 -27q6 -7 6 -17q0 -16 -17 -24q-8 -14 -41.5 -20.5t-44.5 -18.5q-65 -23 -65 -124 q0 -32 -5 -84t-5 -73q0 -12 2 -38.5t2 -40.5v-322q-4 -37 -9 -113q0 -8 -3 -22.5t-3 -20.5q0 -37 4.5 -112.5t4.5 -114.5q0 -20 -5.5 -64.5t-5.5 -66.5q0 -10 2 -33v-33v-26q-2 -16 -2 -23l-2 -8q-23 -6 -38 -6h-7q-37 18 -90 94q-61 86 -86 107q-45 86 -92 114q-2 6 -25 35 q-18 18 -20 12q-6 6 -16.5 19.5t-16.5 19.5q-12 31 -133 150q-141 141 -157.5 161.5t-47.5 61.5q-66 66 -180 209q-27 31 -70 88q-25 4 -25.5 -1t-6 -21.5t-5.5 -22.5q4 -35 9 -109v-14q0 -66 -15 -260q-2 -18 2 -51q2 -41 2 -53l-4 -7q0 -76 0 -75q0 -20 4 -86q2 -53 2 -86 q0 -31 -4 -67t-4 -46q0 -35 41 -72q20 -18 39 -22q29 -8 59 -15q14 -4 29 -18q1 -3 1 -6q0 -26 -46 -37q-61 10 -110 10q-20 0 -62.5 -6t-64.5 -6q-127 0 -140 12q-16 4 -33.5 8t-17.5 19q0 27 10 31l4 6q39 18 113 26q20 20 23 37q2 25 6 35q33 74 41 119q4 29 4 123 q0 37 5 110.5t5 108.5q0 20 -3 70.5t-3 74.5q0 16 4 49t4 47v207q0 119 -37 158q-61 41 -125 84q-20 8 -53 43z" />
<glyph unicode="O" horiz-adv-x="1443" d="M78 700v10q0 155 59 265q2 4 8.5 8t8.5 6q16 37 43 80q84 133 145 195q84 82 209 129q143 53 313 53q66 0 185.5 -40t177.5 -79q27 -18 92 -84.5t88 -95.5q43 -57 92 -227v-5q0 -31 11.5 -93t11.5 -93q0 -18 -4.5 -55t-4.5 -58q0 -63 -22 -143q-14 -23 -35 -70 q-6 -18 -20 -53q-25 -31 -70 -92q-55 -80 -98 -117q-16 -14 -92 -63q-31 -25 -74 -53q-18 -6 -55 -21q-117 -41 -267 -41q-295 0 -524 238q-2 2 -63 102q-68 113 -78 146q-35 127 -37 251zM313 768q0 -33 12.5 -158t18.5 -147q23 -80 95.5 -172t101.5 -117q49 -43 138 -69.5 t134 -26.5q43 0 115.5 18.5t109.5 38.5q18 10 70 62q25 20 70 69q16 25 30 70q20 61 28.5 74.5t27.5 46.5q22 63 22 92q1 2 1 4q0 4 -3 10q-4 8 -4 12q-1 26 -1 60.5t1 77.5q2 104 2 135q0 47 -8 76q-29 100 -117 217q-94 127 -178 162.5t-174 35.5h-5q-225 0 -362 -174 q-125 -162 -125 -397z" />
<glyph unicode="P" horiz-adv-x="1105" d="M66 39q0 37 61 39q23 10 70 26q14 2 32 7q12 18 15 55q0 4 7 14t7 17q8 43 8 96q0 12 -5 33.5t-5 31.5v50q0 12 -2 36.5t-2 34.5q-1 10 -1 23q0 25 3 59q6 59 6 82t-4 64t-4 59q0 25 5 73t5 70q0 6 -2 18.5t-2 18.5q0 23 2 60q4 45 4 61q0 10 6 30.5t4 30.5q0 68 -8 84 q-2 10 -28 37q-4 12 -21 37q-27 12 -63 43q-16 20 -43 53q-4 6 -15 9l-2 2q0 18 41 26q61 -4 205 -6q31 0 82 4q59 4 84 4h39q211 0 297 -20q66 -16 145.5 -73.5t116.5 -115.5q10 -23 31 -67q14 -23 34 -74q2 -41 9 -121q0 -4 3 -12t3 -12q0 -31 -18.5 -90.5t-37 -81 t-53.5 -60.5q-37 -57 -107.5 -98t-140.5 -49q-18 -2 -73 -15q-45 -12 -74 -12q-18 0 -105 10q-55 6 -82 6q-10 0 -16 -1l-4 2l-2 -5q-16 -20 -16 -370q0 -6 4 -19l12 -4q4 -39 81 -52t86 -29.5t9 -18.5l2 -4q-4 -37 -129 -37q-31 0 -96.5 4t-97.5 4q-27 0 -86.5 -5t-89.5 -5 q-80 0 -80 22q-4 6 -4 21zM453 864q0 -88 18 -121q12 -25 12 -36q0 -8 -12 -23.5t-8 -40.5q219 -9 219 -10h-2q8 0 72 29q98 43 145 120q10 25 33 72q18 35 18 41q0 20 -6 62t-6 63q0 8 2 24.5t2 22.5q0 70 -66 127q-49 84 -139 106q-14 4 -178 21h-4q2 0 -51 2h-11 q-25 0 -28 -8q-11 -6 -11 -18q0 -3 1 -7q6 -39 6 -43q0 -12 3 -33.5t3 -31.5t-2 -31t-2 -31q0 -14 4 -41.5t4 -42.5q0 -35 -2 -92q0 -12 -7 -38.5t-7 -41.5z" />
<glyph unicode="Q" horiz-adv-x="1517" d="M53 694q0 72 15 123q6 18 43 115q8 14 22 43q14 41 31 84q18 51 41 78q127 154 291 225q49 14 147 45q76 25 150 25q82 0 206 -43q70 -25 95 -35q51 -20 90 -47q227 -158 278 -383q18 -82 19 -252q0 -147 -31 -223q-4 -12 -14.5 -37t-36.5 -76q-31 -57 -66 -92 q-23 -33 -73 -92q-12 -10 -127 -91q-23 -16 -66 -41q-20 -4 -55 -16q-8 -8 -27 -20q88 -61 266 -152q35 -27 111 -74q39 -18 102 -18q10 0 31 3t29 3q49 0 53 -53v-8q-4 -16 -7 -20.5t-194 -41.5h-22q-57 0 -129 19q-8 4 -26.5 9t-56.5 11t-106 41q-51 29 -102 55 q-27 12 -64 47q-45 41 -59 50.5t-45 25.5q-16 16 -53 45q-14 10 -113 49q-16 10 -49 27q-51 18 -102 37q-63 23 -97 47q-297 221 -299 608zM283 754q2 -109 2 -113q-1 -15 -1 -29q0 -41 5 -69q12 -74 45 -160q39 -98 82 -145q25 -23 71 -64q51 -47 127 -70q53 -23 164 -45h7 q68 0 165 37q47 18 117 76.5t90 99.5q6 12 13.5 37t13.5 38t20 40q39 80 39 182q0 43 3 123t3 117q0 109 -59.5 226.5t-149.5 178.5q-27 25 -84 68q-20 12 -112 27q-84 14 -119 14q-104 0 -205.5 -71.5t-150.5 -170.5q-27 -39 -64 -129q-22 -93 -22 -178v-20z" />
<glyph unicode="R" horiz-adv-x="1343" d="M61 29q0 4 5 12v6q10 18 65 25.5t66 17.5q55 53 55 293q0 25 -5 72t-5 69q0 27 4 80t4 78q0 23 -5 66t-5 63q0 49 6 137q8 96 8 139q0 25 -14.5 94.5t-24.5 82.5l-31 32q-8 12 -28 31q-12 4 -35 14q-4 12 -27 33l4 10q63 37 78 37q12 0 45 -3t49 -3q55 0 191 6 q123 4 190 4q27 0 133 -28q29 -6 84 -21q12 -4 115 -63q12 -2 33 -15q110 -95 110 -257v-9q0 -63 -24 -131q-29 -76 -72 -108q-18 -27 -49 -62q-14 -6 -45 -20q-23 -18 -45 -37q-14 -10 -80 -10q-12 0 -18 -2l-11 -7q2 -6 11 -14q16 -29 63 -78q16 -16 90 -69q18 -12 43 -49 t38 -47.5t34 -28.5q29 -45 92 -129q25 -20 66 -64q10 -20 41 -61q16 -14 90 -31q57 -14 57 -49q0 -45 -164 -45q-129 0 -242 137q-23 27 -86 68q-29 18 -86 84q-23 41 -75 116q-29 27 -80 82q-27 41 -86 113q-27 35 -35 36t-66 7q-10 0 -28 -19q2 -25 -2 -57q0 -4 2 -14.5 t2 -16.5q0 4 -6 -80q-2 -16 0 -40q2 -33 2 -44q0 -12 -5.5 -39.5t-5.5 -41.5q0 -8 15 -54q4 -12 10 -41q4 -6 52 -51t57 -49q35 -20 73 -61l-12 -25q-14 0 -32.5 -3t-35.5 -3q-20 0 -57 3t-53 3h-66q-47 -2 -65.5 -2t-44.5 -4q-37 -4 -45 -4h-90q-27 10 -50 8q-8 0 -30 14 q-10 10 -11 17zM432 1116q0 -20 8 -49q8 -35 11 -45v-88q0 -53 2 -47q2 -6 2 -53q0 -76 18 -89q41 -20 180 -20q39 0 80 16q20 8 73.5 42t59.5 46q47 90 45 127q2 10 -5 25.5t-7 19.5q-2 47 -14 138q-12 20 -31 49q-84 137 -274 137q-39 0 -101 -20q-37 -31 -37 -113 q0 -14 -5 -39t-5 -37z" />
<glyph unicode="S" horiz-adv-x="1034" d="M94 379q10 10 41 -4q25 -12 72 -100.5t84 -104.5q170 -80 282 -80q90 0 162 41q12 12 35 37q82 72 82 164q0 37 -47 123q-53 96 -203 151q-29 6 -82 19q-37 20 -110 55q-27 10 -82 35q-207 109 -207 297q0 92 4 113.5t25.5 78t33.5 68.5q31 33 52 47q27 25 55 33 q16 6 31 10q111 76 319 78h8q85 0 180 -41q8 -6 48 -19q2 2 34 25q23 16 33 16q37 0 37 -20q8 -18 10 -55q1 -12 1 -28t-1 -38q-2 -49 -2 -59q0 -47 2 -76q0 -18 4 -58l2 -12l-4 -6q0 -27 -24 -27q-39 0 -45 39q-16 16 -31 54q-10 31 -21 59q-18 39 -88 82q-61 39 -110 49 q-57 12 -123 12q-18 0 -43 -14q-33 -18 -39 -20q-59 -20 -131 -119q-31 -41 -31 -119q0 -86 152 -156q6 -2 227 -80q18 -10 57 -28q115 -47 199 -119q47 -39 92 -160q31 -81 31 -149q0 -94 -51 -178q-10 -18 -39 -41t-39 -37q-20 -29 -88 -67t-107 -46q-16 -8 -47 -20 q-74 -20 -100 -21q-25 0 -76 3t-78 3q-35 0 -104.5 14.5t-106.5 14.5q4 0 -57 -12q-4 0 -9 -5.5t-7 -5.5q8 0 -23 11l-4 2q-14 29 -14 40t-3 31.5t-3 30.5q0 23 4 67t4 62v18q-1 55 -11 91q-12 41 -12 51z" />
<glyph unicode="T" horiz-adv-x="1157" d="M37 1180q10 53 14 63q16 47 21 98q0 8 30 74q8 2 25 8q14 18 53 19h142q18 0 52 -6t50 -6q12 -1 26 -1q28 0 66 3q72 2 94 2q39 0 118 -7.5t118 -7.5q16 0 53 4t55 4q12 0 37 -2t35 -2q33 0 96.5 7.5t94.5 7.5q10 0 27.5 -17.5t21.5 -17.5q20 -21 20 -64q0 -127 -94 -182 l-6 2q-16 -10 -29 -10q-10 0 -19.5 6t-15.5 6t-8 8q0 6 2 21.5t2 21.5q0 2 -6 10.5t-4 16.5v8q0 44 -61 62q-34 8 -76 8h-17h-8q-12 0 -40.5 -3t-43.5 -3h-49q-8 -25 -12 -49q-14 -4 -25 -19l-2 -26q-2 -23 4 -58q6 -43 6 -59v-68q-2 -51 -2 -69.5t-5 -57.5t-5 -59 q0 -8 -5 -25.5t-5 -27.5q4 -106 4 -105q0 -23 -3 -70t-3 -71q0 -27 8 -79t8 -79q0 -31 -3 -94.5t-3 -95.5q0 -4 2 -15v-16l14 -29q8 -16 37 -42.5t90 -28.5q49 0 64 -41h2q-27 -33 -119 -33q-27 0 -83 4t-85 4q-70 0 -143 -6q-20 10 -47 10q-10 0 -49 -6q-31 -2 -52 0l-43 6 q-4 0 -4 6q0 4 7.5 19.5t7.5 21.5v6q29 0 118 31q14 6 28.5 17.5t25.5 42.5q8 23 16 47q0 18 2 53q0 2 2 13t3 15.5t1 90.5q0 20 -4 61t-4 57q0 12 3 34t3 32q0 16 -7 46t-7 44q0 20 5 61t5 60q0 18 -5 53t-5 51q0 20 9 72.5t9 75.5q0 4 -6 41t-6 57q0 6 -6 17.5t-6 17.5 q0 12 3 36.5t3 37.5q0 84 -57 84q-8 0 -28 -2t-30 -2q-16 0 -42.5 3t-39.5 3h-5q-45 0 -132 -37l-31 -39q-2 -2 -41 -96q-23 -55 -80 -56q-10 0 -16 -2q-10 57 -10 90v11z" />
<glyph unicode="U" horiz-adv-x="1406" d="M76 1376q0 25 47 43q41 0 121 -4q10 0 32.5 -4t32.5 -4q25 0 80 4t84 4q59 -2 51 -2q16 0 44 2t40 2q53 0 56 -20l-7 -25q-20 -33 -110 -49q-72 -14 -72 -88q0 -12 3 -33.5t3 -32.5q0 -14 -5 -42.5t-5 -43.5v-127q0 -41 6 -172q2 -106 2 -172q0 -16 -5 -51t-5 -53 q0 -68 4 -94q6 -8 14 -27q6 -45 27 -127q80 -188 328 -188q47 0 159 45q55 23 117 130t62 171q0 37 7 110.5t7 110.5q0 14 4 44t4 44q0 53 -7 156.5t-7 154.5q0 23 2 72t2 76q-2 66 -76 135q-6 4 -24 10h-2h-29q-23 0 -51.5 16.5t-28.5 36.5q0 10 6 17h6q4 8 17 16l67 2 q32 1 72.5 1t89.5 -1q133 -2 164 -2h5q71 0 71 -26q0 -27 -64 -48q-72 -25 -84 -40q-18 -27 -18 -93q0 -18 -4 -54t-4 -54q0 -14 3 -41t3 -39q0 -25 -4 -72t-4 -69q0 -29 3 -87.5t3 -88.5q0 -170 -13 -275q-12 -49 -34 -133q-16 -63 -17 -66q-10 -29 -37 -61 q-12 -16 -82 -82q-14 -16 -45 -47q-92 -76 -350 -76q-190 0 -319 117q-27 25 -72 76q-6 16 -14 45q-23 70 -44.5 140.5t-21.5 141.5q0 35 8 103.5t8 99.5q0 25 -7 73t-7 73q2 53 4 159q0 16 -3 47t-3 43q0 16 3 49t3 52q0 117 -59 139q-39 8 -76 14q-55 14 -55 39z" />
<glyph unicode="V" horiz-adv-x="1234" d="M41 1372q0 18 14.5 28.5t243.5 10.5q18 0 53 5t51 5h72q14 -14 17 -22q23 -10 22 -43q-16 -6 -37 -29q-10 -6 -41 -16q-10 -2 -23.5 -33t-13.5 -47q0 -14 19 -47q6 -14 63 -113q14 -23 49 -135q27 -82 58 -133q10 -14 28 -47q4 -25 17 -72q33 -123 102 -254q0 -27 13 -27 q12 -16 20 -24l4 -2v4q20 -6 33 12q18 59 51 158q6 6 14 20q6 29 21 88q57 145 115 291q81 206 81 279q0 59 -18 80q-10 12 -46 21t-54.5 25.5t-16.5 24.5q0 39 80 39q25 0 74 -6t74 -6q27 0 80 6t79 6q33 0 33 -39q-8 -23 -67.5 -60.5t-79.5 -92.5q-55 -160 -62 -176 q-39 -100 -76 -170q-23 -63 -57 -164q-2 -8 -29 -101q-10 -14 -24 -45q-16 -57 -53 -163q-27 -59 -74 -183q-8 -14 -21 -47q-12 -51 -43 -143q-27 -59 -55 -70q-43 2 -63 37q-20 76 -54 186q-23 39 -63 121q-18 53 -53 158q-25 45 -52 125q-2 29 -38 104q-8 12 -21 35 q-12 39 -39 113q-31 53 -88 160q-23 74 -80 217q-4 12 -14 39q-10 18 -49 45q-31 23 -35 45q-41 16 -41 22z" />
<glyph unicode="W" horiz-adv-x="1910" d="M37 1391q2 34 194 34h11q12 0 36.5 -3t36.5 -3q25 0 74 3t72 3l4 -2q45 0 51 -14q12 -6 12 -35v-2q-4 -4 -61 -35q-49 -29 -49 -34q-6 -6 -6 -17q0 -47 42 -135t42 -109q0 -4 -3.5 -7t-3.5 -5q0 -27 25 -74q18 -35 34.5 -71.5t47.5 -116.5q25 -45 59 -137q0 -23 9 -60 q35 -70 71 -165q4 -16 17 -50q0 -35 10 -34q14 0 33 26q18 63 65 187q4 10 17.5 29.5t37.5 60.5q14 53 50 153q16 35 33.5 70t17.5 82q0 23 -51.5 178.5t-65.5 175.5q-27 41 -90 51q-51 8 -51 37q-8 4 -15 4q0 2 2 6q0 39 68 39q16 0 51 -2t54 -2q246 4 264 4q12 0 32.5 -8 t30.5 -8l2 -4v-12q-2 -8 -2 -15.5t-5 -19t-5 -17.5q-12 -8 -57 -18q-16 -4 -23 -49q0 -6 4 -49t4 -50.5t29 -66.5q25 -37 70 -117q8 -43 30 -127q23 -49 68 -147q8 -29 29 -88q12 -29 38 -86q6 -6 17 -25q8 -27 24 -80q10 -33 13 -24l8 -2v4q4 -6 10 -6q27 0 41 38 q10 25 43 129q10 33 10 21q20 61 70 180q94 188 96 250q0 8 35 90t35 117q0 78 -82 108h-6l-37 15q-10 8 -23 26h-2q0 14 17.5 27.5t32.5 13.5q16 0 54 -4t56 -4q27 0 86.5 3t91.5 3q92 -2 92 -33q0 -23 -49 -49q-59 -29 -69 -43q-18 -37 -56 -108q-16 -31 -34 -86 q-14 -47 -29 -92q-31 -55 -82 -174q-8 -41 -31 -121q-20 -43 -59 -131q-35 -102 -107 -306q-49 -143 -112 -296q-16 -10 -49 -15q-14 0 -32 15.5t-28 66.5q-12 66 -14 72q-20 37 -53 110q-70 205 -70 222q0 8 -55.5 135t-65.5 145q-6 10 -35 39l-14 -2q-102 -211 -135 -354 q-16 -41 -49 -121q-14 -47 -52 -137q-14 -16 -38 -52q-14 -47 -62 -135l-8 -2q-35 0 -84 76q-14 23 -21 72q-10 57 -14 71q-20 35 -57 109q-23 70 -72 205q-14 27 -28.5 56.5t-14.5 53.5v-2q-2 0 -18 78q-6 8 -17 29q-23 45 -59 133q-6 25 -23 72q-25 41 -65 127 q-4 49 -31 141q-53 104 -76 127q-33 16 -90 53q-2 6 -2 16z" />
<glyph unicode="X" horiz-adv-x="1329" d="M51 31q0 33 43 45q33 10 68 20q27 14 65 51q6 10 19 29q23 25 65 74q29 47 92 137q16 14 46 43q25 43 77 129q37 47 99 146q-2 18 -101.5 183t-120.5 189q-18 12 -51 43q-25 53 -98 150q-39 33 -84 51q-29 10 -59.5 23.5t-30.5 41.5q0 18 14 33q2 0 8 2h9q35 0 103.5 -3 t102.5 -3q20 0 58.5 -3t56.5 -3q31 0 93.5 5t95.5 5q14 0 32.5 -10t18.5 -25q0 -6 -5 -12l-20 -24q-39 -2 -51 -5q-27 -6 -47 -22q-8 -18 -19 -61q0 -16 107.5 -188.5t124.5 -184.5q14 10 35 47q16 27 30 53q8 14 68 68q8 8 18.5 27.5t16.5 27.5q27 37 98 162l2 6 q0 2 -16 45l-8 6q-80 0 -103 49q0 14 12 33l7 6q6 0 18 6q27 0 78 -7t76 -7q23 0 70.5 5t72.5 5q70 0 92 -12q27 0 27 -14v-2q0 -33 -58 -54q-80 -29 -81 -30q-84 -59 -134 -140q-8 -23 -30 -67q-14 -16 -47 -49q-25 -35 -76 -103q-104 -137 -105 -166v-6q8 -10 24.5 -31.5 t22.5 -33.5q-2 0 -2 -4q6 -4 13 -11q74 -90 123 -198q14 -33 59 -113q33 -14 86 -104q66 -111 80 -127q8 -12 26 -35q33 -33 62 -43q18 -2 39.5 -5t27.5 -18q7 -4 19 -12q-8 -16 -18.5 -32.5t-34.5 -16.5q-25 0 -71 3t-69 3q-31 0 -92 -5t-90 -5q-6 0 -49 6h2q0 -2 -82 -2 q-37 0 -37 33q0 31 45 47q59 20 80 43q0 8 2 10q2 33 -88 160q-113 158 -117 166q-39 72 -88 143l-12 2l-10 -4q-39 -39 -156 -223q-41 -47 -112 -144q-41 -66 -41 -96q0 -10 8 -17.5t10 -11.5l12 -10q35 -6 68 -14q47 -8 45 -39v-19l-12 -10q-39 -12 -193 -14h-205 q-49 0 -49 37z" />
<glyph unicode="Y" horiz-adv-x="1204" d="M43 1389q2 32 59 32h4q23 0 66 2t64 2q29 0 84 -3t81 -3q14 0 41 3t39 3q49 0 54 -39q-6 0 2 -8q-27 -37 -74 -41q-10 0 -17 -8l-14 2q-4 -16 -14 -39q4 -12 17.5 -33.5t17.5 -33.5l10 -13q25 -47 67 -145q8 -20 26.5 -34.5t23.5 -22.5q12 -27 38 -76q29 -41 82 -135 q18 -39 29 -39v-2q0 -8 10 -29q4 6 27 33q45 37 90 135l141 246q20 33 43 65q22 39 22 64q0 4 -1 8q0 10 -7 23.5t-10 17.5q-45 12 -122 53l-2 10q0 10 8 35l10 11q10 6 33 6q18 0 55 -6.5t53 -6.5q31 0 89.5 7.5t86.5 7.5q63 0 82 -13l2 -30q-6 -27 -34.5 -40.5 t-53.5 -25.5l-2 -6q-39 -8 -94 -121q-29 -41 -80 -121q-31 -57 -92 -172q-31 -47 -86 -139l-76 -137q-28 -51 -28 -204v-11q0 -18 7 -54t7 -57q0 -14 -3 -45t-3 -47q0 -78 61 -115q61 -29 125 -57q4 -6 8 -18q-8 -8 -11 -14.5t-19.5 -9.5t-48 -5t-46.5 -2q-29 0 -82 6t-77 6 q-47 0 -142.5 -5t-142.5 -5q-25 0 -29 18q-4 8 -2 13q0 37 79 51t89 67q2 8 8.5 26.5t6.5 36t6 48.5q7 36 7 121q0 34 -1 76q-2 113 -21 131l-2 -2q-6 8 -8 22q-25 78 -84 174q-47 78 -100 185q-16 27 -45 81q-8 23 -41 64t-43 59q-25 51 -90 142q-25 16 -66 49 q-16 0 -37 12l-6 19l-2 2v-2h-2z" />
<glyph unicode="Z" horiz-adv-x="1189" d="M55 43q0 10 6 16l2 15q12 20 33 51q57 66 164 205q33 57 111 170q12 10 34.5 32.5t58.5 88t54 86.5q16 14 45 45q10 12 80 127q29 47 156 192q14 16 58 88t52 90q-6 8 -14 23l-4 -2q-37 0 -111.5 -2t-111.5 -2q-43 0 -131 4t-134 4q-41 0 -102 -43q-27 -14 -72 -55 q-4 -4 -45 -97q-31 -67 -58 -67h-1q-31 0 -35 37q16 55 39 165q4 39 16 113q8 37 11 43q8 29 18 31h4q8 12 23 31q20 -8 49 -9q10 10 35 7q37 -6 39 -7q25 0 70.5 -3t68.5 -3h121q14 0 42.5 3t43.5 3q53 0 157.5 -5t157.5 -5q10 0 31.5 4t32.5 2q86 0 104 -12q12 2 21 0 q12 -2 6 -12q3 -5 3 -12q0 -19 -24 -50q-39 -47 -104 -129q-6 -12 -21 -37q-25 -31 -69 -96q-55 -86 -168 -240q-8 -6 -23 -20q-16 -20 -47 -57q-25 -43 -72 -127q-10 -16 -41.5 -44t-42.5 -42q-14 -20 -41 -64q-4 -6 -51 -53q-4 -4 -4 -28.5t-59.5 -106.5t-59.5 -92 q0 -59 318 -60q8 0 21.5 4t19.5 4q-2 0 106 5q26 1 46 1q35 0 53 -4q51 16 65 23q41 16 59 35q27 27 74 80q20 33 66 94q6 10 30 10q12 0 23.5 -19.5t11.5 -31.5q0 -29 -14 -62q-10 -18 -29 -57q-20 -63 -65 -184q-10 -23 -18.5 -33t-55.5 -10q-2 0 -315 6l-2 -2 q-18 0 -56 -2h-55l-4 4q-14 0 -45 2t-47 2q-12 0 -33 -2t-31 -2t-32.5 5t-34.5 5q-14 0 -39 -4q-31 -4 -41 -4q-14 -2 -41 0q-31 2 -39 2q-23 0 -70 -4t-71 -4q-45 0 -48 29q-8 12 -8 20z" />
<glyph unicode="[" horiz-adv-x="509" d="M111 -82q0 270 6 744q6 530 6 741q41 27 323 35q6 0 7 -23l-2 -12q-201 -61 -207 -88q-10 -207 -11 -748v-848q0 -35 99.5 -39t103.5 -12l17 -20l-2 -15q-2 -12 -21 -24q-8 0 -168 6q-129 4 -149 14q-2 8 -2 86v203z" />
<glyph unicode="\" horiz-adv-x="942" d="M47 1427q0 10 42 21.5t54 9.5q35 0 54 -39q352 -802 706 -1605q-2 -16 -31.5 -26.5t-46.5 -10.5q-43 0 -71 51q-18 45 -58 131l-121 272l-442 1006q-82 186 -86 190z" />
<glyph unicode="]" horiz-adv-x="493" d="M33 -354q0 37 96 37h33q45 0 61 6q10 0 15.5 5t11.5 19q10 47 14 160q2 78 0 211q-2 152 -2 174q2 238 2 1051v26q-4 8 -20 21q-49 10 -183 14q-8 4 -12 8v6q0 51 12 52q117 0 271 -9q18 -18 43 -47q12 -31 12 -178q0 -285 -6 -782q-6 -559 -6 -782q-35 -20 -158 -25 q-88 -4 -174 -6q-10 25 -10 39z" />
<glyph unicode="^" horiz-adv-x="960" d="M86 866q0 25 20 56l318 471q14 20 27 24q61 0 81 -31q171 -241 353 -522q0 -4 -21 -8l-24 -4q-27 18 -82 47l-281 320l-313 -361q-29 -2 -72 -6q2 0 -6 14z" />
<glyph unicode="_" horiz-adv-x="1019" d="M-10 -229q20 20 53 49l963 2l24 -64q-20 -25 -57 -53l-979 -2z" />
<glyph unicode="`" horiz-adv-x="595" d="M82 1239q0 37 34 61.5t68 24.5q45 0 82 -39q61 -80 187 -233q18 -16 53 -52q20 -26 20 -36q0 -29 -34 -29q-25 0 -181 98q-150 92 -182 123q-47 43 -47 82z" />
<glyph unicode="a" horiz-adv-x="886" d="M86 207q0 68 66 112q23 16 71 41q186 66 271 68q39 0 69 12q14 72 15 99q0 57 -12.5 81.5t-59.5 49.5q-51 28 -107 28h-4q-25 0 -59.5 -24.5t-40.5 -47t-39 -77.5q-12 -14 -86 -37q-14 6 -23 20q-26 15 -26 61q0 30 29 62q25 25 47 50q14 6 43 20q90 53 116 63 q49 18 136 19q195 0 253 -172q12 -36 12 -61q0 -8 -1 -15q4 -16 4 -51q0 -33 -8.5 -96.5t-8.5 -94.5q0 -152 33 -204q10 -6 35 -11l8 2q10 8 33 19q14 2 39 8q12 -2 22 -10l11 -23l-2 -12q-31 -29 -97 -70q-14 -4 -43.5 -19t-40.5 -13q-88 0 -110 28q-18 37 -41 72h-2 q-2 -2 -4 -2q-23 -6 -64 -47q-80 -55 -182 -60q-6 0 -19.5 -3t-21.5 -3q16 0 -49 8q-145 39 -148 144l-10 12q-4 49 -4 74zM274 217q0 -86 27 -92q35 -27 94 -29h7q38 0 83 21q61 29 78 53t17 90q0 31 -2 37q4 16 -5 29q-4 2 -7 17t-9 15q-10 0 -111 -28q-20 -4 -58 -10.5 t-73 -36.5q-41 -33 -41 -66z" />
<glyph unicode="b" horiz-adv-x="933" d="M41 1399q0 2 4 14q25 18 63.5 26.5t73.5 16.5q10 2 60 25q33 16 58 16h5q2 2 6 4q37 0 43 -59q0 -20 -5 -62.5t-5 -64.5q0 -8 4 -17v-215q0 -20 -5 -61t-5 -61q0 -150 14 -154q2 -25 10.5 -28t53.5 -3q27 0 74 16.5t73 16.5q29 0 127 -22.5t113 -36.5q8 -2 18 -17l43 -31 q119 -104 119 -280q0 -16 -10 -51q-12 -47 -15 -54q0 -14 -4 -45q-14 -63 -92 -135q-16 -33 -67 -82q-96 -51 -136 -63q-55 -16 -153 -17q-37 0 -176 37q-8 2 -31 15.5t-31 13.5q-18 0 -45.5 -19.5t-34.5 -19.5q-20 0 -41 12q-6 31 -6 37q0 14 8.5 42t10.5 40q4 35 4 131 q0 51 8 151.5t8 149.5q0 12 -4 36t-4 34t2 35v35q0 31 -2 108q-2 68 -2 109q0 20 2 79q2 49 2 80q0 18 5 52t5 51q0 78 -18 129q-8 20 -66.5 36.5t-58.5 49.5zM342 514q0 -18 4 -52t4 -50v-84q0 -23 -2 -60q-4 -47 -4 -59q0 -6 14 -37q18 -37 21 -45q18 -18 72.5 -44 t83.5 -26h4q110 0 188 103q72 92 72 205v6q-4 39 -15 114q2 -10 2 31q0 14 -12 27q-4 14 -18 43q-37 47 -103.5 74.5t-128.5 27.5q-102 0 -142 -38t-40 -136z" />
<glyph unicode="c" horiz-adv-x="780" d="M86 313q0 6 2 17.5t2 17.5v37q-2 25 -2 35q0 152 150 276q143 121 294 121q84 0 166 -31q107 -38 107 -108q1 -2 1 -5q0 -8 -5 -16q-8 -31 -17 -63q-8 -18 -59 -19q-53 0 -82 39q-37 49 -74 66q-4 6 -127 6q-23 0 -47 -10l-6 -12q-6 -4 -45 -51.5t-43 -53.5 q-37 -35 -37 -118v-9l10 -96q11 -96 64 -150q14 -14 33 -16q29 -6 32 -8q84 -35 152 -41q59 0 113.5 29.5t68.5 29.5q29 0 32 -4t3 -33t-62.5 -78t-97.5 -59q-61 -16 -133 -16q-113 0 -203 49q-16 10 -47 31q-23 10 -59 39q-6 16 -23 45q-61 102 -61 159z" />
<glyph unicode="d" horiz-adv-x="1007" d="M68 322q0 193 127 309q27 31 77 67q12 14 41 35q133 61 224 62q20 0 73 -7q35 -4 60 -4h16l27 2q8 10 11 35t9 35q-8 82 -8 123q0 37 5 108.5t5 106.5q0 55 -6 74q-10 31 -51 49h-12q-8 -2 -13 -2q-47 0 -57 20q-10 6 -10 19q0 23 26 43q41 8 111 24q55 37 154 76 q18 0 22 -12q14 -39 14 -137q0 -20 -4 -181q-2 -18 -8 -59q0 -14 5 -41t5 -43v3q-2 0 -14 -79q-4 -27 -4 -80q0 -55 6 -164.5t6 -164.5q0 -25 -2 -77t-2 -79q0 -35 4 -94q6 -68 6 -94q0 -10 -2 -27.5t-2 -26.5q0 -14 13.5 -30.5t27.5 -16.5q8 0 26.5 6t24.5 6q21 1 33 -40 q-20 -39 -114 -66q-78 -23 -136 -23q-2 0 -59 58q-8 31 -39 18q-8 -4 -76 -26q-33 -16 -92 -37q-96 -8 -133 -8q-35 0 -125 42t-108 66q-29 39 -55.5 111.5t-26.5 120.5zM248 455q0 -115 10 -162q20 -82 84 -133t90 -60q-6 2 41 2q10 0 34.5 -4t37.5 -4q49 0 98 39 q59 47 74 109q4 23 4 137q0 33 5 96t5 94q0 61 -84 115l-14 -2q-41 29 -101 29h-4q-167 0 -252 -156l-14 -10q-14 -20 -14 -90z" />
<glyph unicode="e" horiz-adv-x="825" d="M90 418q0 16 17.5 72.5t25.5 72.5q27 35 76 109q14 12 39 41q82 55 114 71q61 27 136 27q100 0 196 -47q111 -51 142 -135q2 -6 14 -25t12 -33q0 -23 -26 -57q-6 -10 -19 -25q-27 -14 -231 -14q-63 0 -301 -22q-2 -16 -14.5 -44t-12.5 -47q0 -72 16 -102q35 -66 148 -104 q88 -29 182 -31q33 0 70 22q51 33 59 38t35 20.5t31 15.5t24 6l6 -4q6 -12 7 -24q0 -14 -17 -35q-25 -31 -24 -31q-23 -37 -26 -40t-42 -27q-4 -4 -12 -11.5t-31 -19.5q-95 -53 -192 -53h-7q-33 0 -129 32q-33 10 -92 33q0 2 -33.5 29.5t-37 31t-11.5 17.5t-14 20 q-78 94 -78 273zM289 575q0 -35 12 -43q39 0 127 3.5t127 3.5q53 0 104 30l5 11q2 10 -7.5 32.5t-17.5 28.5q-18 39 -71.5 63.5t-100.5 24.5q-104 0 -154 -106q-10 -18 -24 -48z" />
<glyph unicode="f" horiz-adv-x="591" d="M74 727q0 8 14 37q12 10 84 20q61 6 76 37q2 39 2 137q0 49 27.5 148.5t54.5 142.5q152 244 297 244q43 0 76.5 -27.5t33.5 -68.5t-27.5 -72t-66.5 -31q-16 0 -27 11q-16 12 -20 14q-55 24 -71 24h-1q-14 0 -23 -6t-19.5 -20t-14.5 -19q-43 -45 -51 -155v-170l-12 -31 l2 -143q10 -8 53 -17.5t53 -7.5q8 0 37 4q20 0 31 -10l2 -39q-27 -16 -47 -20q-2 -8 -64 -29q-37 -6 -45 -6l-4 -51q-18 0 -18 -48q0 -12 5 -36.5t5 -36.5q0 -10 -6.5 -33t-6.5 -35v-177v1q4 -135 35 -160q20 -16 78 -20q47 -4 78 -49q-4 -37 -72 -37q-14 0 -46 5t-48 5 q-49 0 -147.5 -4t-147.5 -4q-27 0 -27 35q0 33 62.5 52t69.5 40q-4 41 -2 47q0 12 2 47v47q-2 109 -2 129q0 16 6 72q4 43 4 72q0 12 10 32q0 80 1 80l1 -14q-2 43 -22 49l-66 4q-10 2 -14 4q-23 2 -70 10l-4 2l-4 7q-4 12 -4 18z" />
<glyph unicode="g" horiz-adv-x="897" d="M82 -264q0 35 33 80q51 68 53 71l2 11q0 4 26.5 20t26.5 19q0 12 -23.5 17t-23.5 23q0 4 -8 13.5t-9 11.5t-14 57q2 6 -1 16.5t-3 14.5q0 47 37 76q4 12 4 18t46 21.5t48 23.5q0 14 -41.5 40t-41.5 38q0 4 2 6q-20 27 -21 31q-49 61 -51 115v7q0 123 65 169l11 18 q25 31 82 76q63 27 190 66q7 1 18 1q29 0 81.5 -7.5t79.5 -7.5q10 0 16 1q4 0 16 21q6 14 12 26q12 -2 42 14.5t102 16.5q37 0 73 -18l-2 -11q17 -24 17 -55q0 -37 -23 -37q-8 0 -31.5 7.5t-35.5 7.5t-21 -4q-39 -8 -86 -25v-6q0 -6 25.5 -28.5t23.5 -31.5q10 -29 39 -73 q12 -20 12 -70q0 -14 -28 -90q-53 -139 -271 -207q-35 -2 -104 -16q-10 -4 -31 -15q-12 -2 -43 -30q-25 -8 -20 -8q-82 0 -82 -35q0 -16 18 -39q8 -27 109 -27q45 0 115 6q78 6 79 6h18q69 0 97 -14q35 -8 47 -7t19 -7q16 -2 47 -37q18 -25 39 -49q12 -39 24 -109 q0 -47 -59 -114q-47 -51 -101 -89q-14 -10 -73 -32q-18 -12 -62 -31q-60 -14 -114 -14h-13q-123 2 -180 28q-33 0 -92 21q-84 55 -86 129zM256 -195q0 -74 92 -120q74 -39 152 -39q92 0 168 116q16 49 16 41l14 64q0 20 -53 31q-66 14 -72 17t-23.5 3t-82.5 4q-27 1 -48 1 t-36 -1q-41 -18 -84 -37.5t-43 -79.5zM289 485q0 -125 86 -170q49 -26 64 -26h1q8 0 52 10q29 4 67 23q62 59 62 206q1 8 1 16q0 30 -12 54q-8 8 -22 25q-69 90 -141 90h-3q-49 0 -88 -29q-10 -14 -26 -33q-10 -10 -14.5 -26.5t-6.5 -20.5q-20 -41 -20 -119z" />
<glyph unicode="h" horiz-adv-x="983" d="M61 20q0 18 56.5 51t62.5 56l13 14q6 25 6 103v162q0 10 2 33.5t2 33.5q1 9 1 20q0 22 -3 52q-4 53 -4 71q0 82 5 244t5 242q0 111 -27 145q-4 16 -26 37q-25 29 -56 59q0 4 -2 12.5t-2 14.5q0 2 2 4q10 25 49 37q23 4 64 16q49 29 121 60q35 0 41 -12q12 -4 18 -52 q0 -74 -2 -161q0 -14 -6 -56.5t-6 -68.5q0 -20 5 -59.5t5 -55.5q0 -45 -4 -155.5t-4 -155.5q10 -4 23.5 8t23.5 12q18 0 61 22.5t62 26.5q72 16 121 17q45 0 77 -17q10 -8 29 -22q59 -25 82 -45q57 -49 68 -234v-252q0 -94 12 -119.5t86 -64.5q4 4 27 -27q-2 -24 -50 -24h-4 q-20 0 -61 3t-64 3q-29 0 -97 -2t-105 -2q-16 -2 -43 2q-10 10 -11 24q0 18 56.5 51t62.5 56l12 16q6 25 7 74q0 10 -4.5 29.5t-4.5 27.5q0 27 5.5 78t5.5 76q0 113 -54 162q-16 12 -51 45q-49 16 -96 16l-10 8h-29q-27 0 -57 -14q-37 -14 -39 -35q-25 -33 -25 -47 q0 -8 2 -14q-20 -76 -20 -176q0 -6 -3 -17.5t-3 -15.5t-4 -59q-2 -25 6 -54q0 -94 12 -119.5t86 -64.5q4 4 27 -27q-2 -24 -50 -24h-4q-20 0 -61 3t-64 3q-29 0 -97 -2t-105 -2q-16 -2 -43 2q-10 10 -11 24z" />
<glyph unicode="i" horiz-adv-x="509" d="M96 23v10q14 33 78 47q51 12 51 94q0 14 2 40t2 38q0 16 -2 47t-2 45q0 12 3 38t3 40q0 -4 -6 20v109q-4 88 -18 88l-12 12v2q-29 6 -60 13.5t-31 40.5q0 23 17 28q49 12 141 37q33 16 96 43q16 -2 31 -14q19 -35 19 -106v-7q0 -27 -5 -110q-2 -70 -2 -111q0 -12 -4 -55 t-4 -64q0 -25 6.5 -73t6.5 -72q0 -92 22 -117q8 -10 53 -12q38 -4 56 -41q-2 -41 -78 -41q-23 0 -68 3t-67 3q-27 0 -76 -3t-74 -3q-47 0 -78 31zM236 1284q0 33 45 72t77 39q41 0 73 -30t32 -71q0 -39 -34 -75.5t-71 -36.5q-45 0 -83.5 29.5t-38.5 72.5z" />
<glyph unicode="j" horiz-adv-x="428" d="M86 -381q0 12 18.5 34.5t19.5 38t13 34.5l27 41q65 99 65 261q0 34 -3 90t-3 85q0 16 5 46t5 43t4.5 66.5t4.5 67.5q0 -4 -6 20q-2 20 0 56q2 41 2 53q0 14 -6.5 51t-12.5 37l-12 12v2q-29 6 -59.5 13.5t-32.5 40.5q0 23 16 28l143 37q33 16 95 43q16 -2 30 -14 q21 -39 21 -115q0 -39 -4 -108q-4 -80 -4 -111q0 -12 -8.5 -108.5t-8.5 -116.5q0 -14 3 -44t3 -42v-22q0 -118 -39 -189q-6 -33 -30 -76q-10 -33 -20.5 -62.5t-49.5 -68.5l-18 -23q-12 -20 -76 -65q2 -8 -18.5 -22.5t-26.5 -22.5q-8 -14 -19 -15q-18 0 -18 25zM236 1282 q0 43 30.5 70.5t73.5 29.5q16 0 33 -6q27 -18 54.5 -39.5t27.5 -56.5q0 -41 -31 -79t-72 -38q-35 0 -69.5 25.5t-40.5 58.5q-6 8 -6 35z" />
<glyph unicode="k" horiz-adv-x="933" d="M59 16l27 27q-2 6 6 10q16 4 27.5 10.5t17.5 59.5q2 29 4 55q6 37 15 109q0 8 4 98q0 8 5 27.5t5 29.5q0 8 -3 21.5t-3 19.5q0 47 -2 68q0 4 -5 11t-5 9v95q-2 63 -2 94q0 35 4 108.5t4 110.5q0 12 3 38.5t3 43.5v74q0 20 -10.5 58t-12.5 52q-4 39 -4 88q-2 2 -41 25 q-29 18 -24 31q4 14 37 32q8 4 72.5 29t67.5 25t35 8q22 5 32 5q5 0 8 -1q2 -6 5 -15.5t5 -15.5l6 -10q4 -10 4 -33q0 -27 -4 -70q-6 -53 -8 -69q-1 -14 -1 -32t1 -40q2 -59 2 -74q0 -20 -3 -62t-3 -65q3 -113 4 -113v3q0 -16 -4 -48t-4 -48q0 -20 5 -65.5t5 -63.5 q-2 -74 -2 -109q0 -10 3 -44t3 -46l41 14q12 33 101 92.5t106 96.5q0 14 -6.5 23t-51.5 26.5t-43 38.5l7 12q23 12 59 12q37 0 110.5 -4t110.5 -4q14 0 41 2t39 2q55 0 63.5 -9t14.5 -21v-17l-4 -10q-27 -6 -78 -33q-68 -10 -160 -65q-98 -55 -133 -109l2 -8 q-31 -25 -31 -39t41 -35q2 -6 33 -41q43 -51 133 -151q8 -6 23 -19q12 -20 43 -61q18 -18 65 -56q12 -10 72 -22q51 -10 65 -39q0 -2 3 -8v-10q0 -14 -21.5 -22.5t-36.5 -6.5q-4 -2 -12 -2q-14 0 -43 4t-45 4q-18 0 -57 -3t-60 -3q-33 0 -65 47l-50 70q-47 57 -96 112 q-76 92 -90 94q-6 2 -45 35q-4 0 -14.5 -6t-20.5 -4h-14v-12q-2 -8 -2 -13q0 -180 18 -202l35 -29q20 -16 20.5 -35.5t8.5 -36.5l-12 -3q-11 -3 -7 -5q-8 -16 -33 -16q-20 0 -43 2q-8 0 -22 3t-18 3h-41q-29 -2 -36 -2t-40 -2t-51 -2q-27 0 -35 8z" />
<glyph unicode="l" horiz-adv-x="520" d="M96 39q0 31 63.5 43t73.5 41q-2 -8 -2 31q0 59 4.5 177t4.5 175q0 72 -7 203q-8 141 -8 202q0 16 10.5 47t10.5 46l-6 92q0 2 -6.5 11t-6.5 15q0 20 2 59.5t2 57.5q0 61 -28 78q-41 12 -80 26l-2 9l-6 4q-4 4 -4 14q4 4 9 14.5t12 14.5t26 14q25 2 69 10q43 27 138 60h6 q18 0 37 -10q12 -14 12 -46q0 -31 -5 -90t-5 -86q0 -25 3 -71.5t3 -67.5v-393q0 -25 -8.5 -74t-8.5 -74q0 -23 9.5 -63.5t9.5 -56.5q0 -49 -2 -136q-4 -96 -4 -137q0 -90 51 -98q68 -12 86 -45q-2 -16 -18.5 -28.5t-30.5 -10.5q-10 0 -37 2h-37q-10 0 -33.5 -3t-38.5 -3 q-8 0 -24.5 3t-24.5 3q-10 0 -31 -2h-30h-88q-59 8 -60 43z" />
<glyph unicode="m" horiz-adv-x="1574" d="M94 33v8q2 8 19 14l4 4q27 4 59 15q20 14 35 57q12 37 12 66q0 8 3 9t1 11q0 37 -3 173t-3 171q0 47 -43 58.5t-47 33.5q-2 8 8 43q4 8 8.5 15.5t18.5 5.5l6 2q4 0 17.5 15.5t17.5 17.5q41 16 119 49q2 0 6 2q18 0 47 -47q12 -6 22 -17l11 -14q8 -8 24 -23q29 23 88 58 q115 45 162 45q35 0 109 -19q63 -16 88 -49q29 -41 51 -51q23 18 70 53q103 64 249 64h9q8 0 75 -21q20 -6 58 -24q84 -70 84 -244q0 -16 -5.5 -45t-5.5 -39q0 -20 -3 -65.5t-3 -69.5q6 -18 13 -57q4 -55 8 -82q8 -57 24 -72q14 -4 41 -18q38 -8 58 -37q0 -37 -45 -37 q-18 0 -52 4t-51 4q-25 0 -76 -3t-77 -3q-18 0 -55.5 2t-53.5 2q-8 0 -13 10t-1 15l2 4l-4 6v8q2 8 18 14l4 4q27 4 60 15q20 14 34 57q12 37 13 66q0 -4 -6 57q0 25 3 72t3 69q0 33 -11.5 96.5t-11.5 98.5t-39 45q-37 43 -157 43q-18 0 -70.5 -23.5t-58.5 -38.5 q-23 -23 -27 -55q0 3 1 3t1 -64q0 -12 -4 -37t-4 -39q0 -12 5 -38t5 -40q0 3 -1 3t-1 -62q0 -8 3 -24.5t3 -24.5t-3 -25.5t-3 -28.5q0 -23 18.5 -59.5t34.5 -48.5q10 -4 28.5 -11.5t26.5 -13.5l7 -12v-14q-2 -8 -15 -17l-141 -12q-18 0 -58 4t-61 4q-18 0 -51 -4 q-39 -4 -53 -4q-12 0 -21.5 6t-7.5 18q-4 4 -4 7q0 18 100 59q29 41 29 98q0 10 -6 31t-6 33q0 29 3 84t3 82q0 139 -72 211q-33 8 -26 8l-11 6q-4 0 -10 5t-10 5q-16 4 -53 10q-6 0 -17.5 -5t-18.5 -6t-61 -1q-61 -2 -73 -47q0 -12 -4 -39q-23 -55 -23 -184q0 4 4 -107 q0 -10 2 -32q4 -55 8 -82q8 -57 25 -72q14 -4 41 -18q37 -8 57 -37q0 -37 -45 -37q-18 0 -52 4t-50 4q-25 0 -76 -3t-78 -3q-18 0 -55 2t-53 2q-8 0 -13.5 10t-1.5 15l2 4z" />
<glyph unicode="n" horiz-adv-x="1044" d="M92 33v8q2 10 21 14l4 4q27 4 57 15q20 14 35 57q12 37 12 66q0 8 -2 27.5t-2 31.5q0 18 5 55t5 51q4 8 4 15q0 12 -6 35.5t-6 33.5t2 31t2 29q0 20 -13 64t-28 46q-53 31 -53 58l-14 26l-4 2q0 18 36 31q27 4 74 21q29 16 86 41q4 2 8 3t9 3q18 0 24 -6l10 -2 q10 -2 23 -9l6 -8q4 -29 23 -88q68 41 135 80q63 33 162 33q74 0 108 -29q66 -23 103 -94q30 -58 30 -125v-12q0 -31 -4 -101.5t-4 -107.5q0 -20 6 -59.5t6 -57.5q0 -10 -3 -30.5t-3 -30.5q0 -55 43 -86q33 -4 70 -15q8 -4 12 -12l2 -8l2 -2q-6 -41 -67 -41q-33 0 -98.5 5 t-100.5 5q2 0 -145 -6q-25 6 -25 18q0 41 49 56q57 14 68 43q18 6 18 45q0 20 -6 59t-6 57q0 14 5 42t5 40v-2q-1 0 -8 76q0 10 7 26.5t7 24.5q0 102 -106 148q-2 2 -21.5 15t-34.5 13q-147 0 -206 -69l-2 -47q-4 -76 -9 -123q0 -4 -5 -18.5t-5 -18.5t4 -139q2 -53 4 -82 q6 -59 23 -74q14 -4 41 -18q37 -8 57 -37q0 -37 -43 -37q-16 0 -51 4t-53 4q-27 0 -77 -3t-75 -3q-18 0 -55 2t-55 2q-8 0 -13 10q-4 10 0 15v4z" />
<glyph unicode="o" horiz-adv-x="954" d="M96 393q0 111 68 205q152 213 414 214q131 0 223 -62q20 -14 47 -48q20 -25 43.5 -53t38.5 -65q31 -37 31 -72q0 -18 8 -57.5t8 -57.5q0 -150 -132 -285t-280 -135q-133 0 -194 19q-76 23 -168 100q-6 18 -53 84q-45 57 -46 88q0 18 -4 60.5t-4 64.5zM274 438 q0 -6 4.5 -17t4.5 -20q0 -59 22 -141q27 -96 64 -123q18 -12 53 -41q72 -47 113 -47q152 2 198 131q12 27 27 56q8 20 8 69q0 18 4 54.5t4 52.5v7q0 96 -53 186q-55 93 -145 120q-32 5 -44 5q-4 0 -6 -1q-18 0 -34 -6q-23 -10 -31 -12q-66 -14 -88 -39q-27 -37 -53 -76 q-6 -8 -13.5 -18.5l-17.5 -24.5q-16 -55 -17 -115z" />
<glyph unicode="p" horiz-adv-x="937" d="M78 -406q0 6 6 13v4q-2 31 69.5 37t71.5 65q0 27 -3 82t-3 84q0 33 4 98.5t4 98.5q0 31 -4 93t-4 93t8.5 91.5t8.5 88.5q0 119 -15 168q-4 4 -41 24.5t-41 20.5q-14 18 -16 29q0 6 8 37q2 10 38 23.5t114 37.5q33 16 82 35q16 -8 16 -18q0 10 -4 -23q0 -10 4 -14t20 -41 q8 0 21.5 4t19.5 4q41 29 114 53.5t120 24.5q104 0 201 -105q14 -12 30 -32q6 -14 19 -45q51 -126 51 -224q0 -12 -4 -45q-12 -23 -25.5 -71.5t-23.5 -69.5q-59 -127 -195 -192l-57 -19q-57 -24 -88 -24h-2q-68 0 -99 14q-12 8 -57 26q-4 0 -29 17q-8 -8 -8 -25 q0 -10 3 -29.5t3 -27.5v-4h-2q-6 -103 -6 -155v-23q4 -66 74 -111q82 -51 84 -57q8 -10 -4 -45q-7 -3 -16 -3t-21 3q-29 10 -41 10h-252q-16 0 -51 2t-50.5 2t-19.5 2q-12 8 -12 18zM393 451q0 -4 6 -256q4 -18 18.5 -47t69 -52.5t88.5 -23.5q29 0 72 14t62 33q8 10 26 35 q62 73 62 155q0 10 -2 12.5t-3 7.5t-3.5 10t-2.5 27.5t-7 67.5t-7 70q0 55 -70 108q-68 52 -127 52h-4q-35 -8 -106 -23q-20 -16 -25 -25q-8 -27 -10 -30q-37 -70 -37 -135z" />
<glyph unicode="q" horiz-adv-x="974" d="M76 375q0 92 90 231q-2 -4 -2 17q0 4 28 33l29 30q121 117 320 117q53 0 124.5 -27.5t77.5 -27.5q25 0 54.5 30.5t50.5 30.5q33 0 33 -55q0 -29 -6.5 -87.5t-6.5 -88.5q0 -102 -6 -142.5t-14 -118.5q0 -39 6 -106q8 -74 8 -107l-4 -167q0 -12 -3 -40t-3 -42 q0 -39 14 -107q18 -82 39 -92l6 -6q27 -8 58.5 -16.5t42.5 -26.5v-10q0 -37 -45 -37q-25 0 -72 6t-72 6q-82 -4 -248 -8q-33 14 -30 30v13l8 8q14 10 129 49q12 14 12 51q2 6 0 9v100q-2 68 -2 102q0 10 2 33v35q0 31 -3 37t-5 4l-8 -2q-4 4 -8 16q-117 -74 -256 -74 q-66 0 -143.5 43t-114.5 99q-16 25 -43 110q-37 119 -37 148zM236 434q0 -78 59 -188q66 -117 133 -140q6 -2 16.5 1.5t14.5 3.5q18 0 52 -3.5t50 -3.5q45 0 82 25q45 27 45 70v14v51q0 25 2 72v70q0 158 -11 182t-48 61q-8 12 -27 33q-41 33 -117 33h-5q-99 0 -162 -70 q-66 -72 -74 -176q0 -6 -4 -17.5t-6 -17.5z" />
<glyph unicode="r" horiz-adv-x="645" d="M86 39q2 14 50 31.5t54 27.5q14 6 23 17q6 20 6 96q0 14 3 42t3 42q0 18 -3 52t-3 50q0 25 8.5 67t8.5 52q0 33 -39 111l-2 4q-16 4 -48 20v4q-4 6 -12 9.5t-35 11.5v10q-2 6 -2 8q6 12 13 25q2 6 24 16h5q45 0 124 33q84 35 80 35q49 0 49 -40v-12q0 -34 13 -94 q4 2 90 82q74 68 125 68q14 0 47.5 -12.5t42 -19.5t16.5 -11q23 -21 23 -68q0 -23 -19.5 -56.5t-38.5 -41.5q-2 -2 -35 -8q-36 12 -78 12h-12q-4 0 -69 14q-14 -2 -31 -12q-4 -4 -11 -14t-12 -17l-14 -10l-8 -10q-25 -16 -25 -125q0 -6 -4 -19.5t-4 -21.5q0 -14 -2 -43 t-2 -45q0 -59 14 -74v-10q0 -40 13 -111q8 -2 20 -10t19 -12q31 -6 61 -12q49 -12 45 -29l2 -10q-2 -29 -43 -33q-31 4 -92 4q-27 0 -80 -3t-80 -3q-6 0 -59 -2q-20 -1 -35.5 -1t-26.5 1q-35 2 -53 12z" />
<glyph unicode="s" horiz-adv-x="745" d="M102 260q20 10 43 19h5q25 -16 36 -60q14 -51 33 -72q35 -41 119 -65q49 -14 63 -14q37 0 88.5 18t69.5 45l21 41q2 10 4 25q0 29 -11 39q-2 14 -20 32q-6 39 -109 56q-39 14 -116 36q-20 16 -64 46q-20 2 -51 16q-53 59 -55 61q-20 29 -19 78v43q0 8 30 59.5t36 55.5 q25 25 84 59q41 25 67 25q6 2 21 2q20 0 60 -2t58.5 -2t139.5 -29q20 4 29 2q45 0 45 -24q0 -4 -3.5 -12.5t-3.5 -14.5q0 -10 5.5 -28.5t5.5 -26.5q0 -57 -25 -99h-2q-6 0 -17.5 6.5t-17.5 6.5q-16 12 -24.5 31.5t-12.5 25.5q-53 78 -194 78q-47 0 -89 -34t-42 -79 q0 -92 170 -100q59 -2 116 -35q14 -16 46 -45q78 -55 94 -74q37 -40 37 -110q0 -27 -33 -93.5t-41 -72.5q-102 -92 -295 -92q-41 0 -107.5 19t-89.5 19q-6 0 -43 -14q-26 6 -26 102v7q0 25 -7.5 74t-7.5 71z" />
<glyph unicode="t" horiz-adv-x="577" d="M88 713v20q37 16 80 39q18 14 33 53q12 33 23.5 61.5t21.5 53.5q16 35 30 43q8 4 21.5 13.5t21.5 11.5h5q14 -12 8 -33l6 -8q-4 -6 2 -23q8 -23 8 -31q0 -18 -3 -56t-3 -58l8 -6q0 -16 23 -17h69q16 0 50 2h51q9 1 17 0q50 0 50 -33q0 -20 -39 -75q-17 -7 -53 -7 q-18 0 -41 2q-27 2 -46 2q-32 0 -46 -5l-47 -17q0 -12 2 -36.5t2 -39.5q0 -10 -2 -29.5t-2 -27.5q0 -20 3 -62t3 -61q0 -23 -3 -71t-3 -72q0 -37 18 -86q23 -57 50 -60h10q16 2 35 -10q6 2 28.5 14.5t26.5 10.5q16 4 45 -9q10 -14 -1 -34.5t-54 -49t-68 -28.5q-8 0 -20.5 3 t-18.5 3q-4 0 -15.5 -3t-17.5 -3h-39q-4 2 -38 10q-23 4 -27 21q-59 29 -74 104q-2 14 -4 141q0 18 -4 56.5t-4 58.5q0 27 8 70t8 49q0 135 -20 135q-27 12 -56 29q-18 10 -18 45z" />
<glyph unicode="u" horiz-adv-x="1046" d="M96 735q6 25 51 41q37 12 70 12q47 0 137 -45q20 -25 21 -139q0 -12 -6.5 -35.5t-6.5 -33.5l-2 -68q0 -6 13 -150q4 -41 8 -81.5t31 -79.5q12 -23 26.5 -42.5t46.5 -19.5q92 0 148 25q12 8 37 18q41 14 75 62q12 16 13 272q0 2 5 11.5t3 19.5q0 104 -18 135 q-12 20 -54 25q-51 6 -84 32l2 2q-6 6 -6 17q0 18 19 37q8 4 92 16t102 12q35 0 72 -12q43 -55 43 -133q0 -27 -3 -82t-3 -84q0 -78 -6 -121q-8 -57 -9 -51q0 -49 5 -94q2 -16 20 -53t31 -39l8 -7q8 0 22.5 5.5t20.5 5.5q23 0 31 -11q16 -4 22 -14l2 -4q-6 -51 -203 -88 q-6 -2 -17 -8t-17 -6q-47 0 -64 22q-8 12 -8 45t-12 41q-39 -10 -110 -49t-109 -49q-16 -2 -48 -8q-38 -11 -54 -11h-3q-10 0 -35.5 8.5t-40.5 8.5q-41 0 -81 45t-40 86q0 10 -8 34.5t-8 34.5q-2 25 -2 78q0 18 -5 59.5t-5 61.5q0 18 5 53t5 52q0 8 -14.5 65t-18.5 64v8 q0 35 -12 39q-23 16 -57 32q-4 6 -15 19q0 10 -2 14z" />
<glyph unicode="v" horiz-adv-x="929" d="M68 754l10 12v-2l2 2q23 16 47 16q10 0 30.5 -2t30.5 -2q14 0 43 2t41 2h74q49 -2 74 -2q53 0 53 -35q0 -33 -27 -38q-55 -16 -55 -17q-6 -4 -18 -10q-4 -2 -4 -6q0 -35 43 -125q8 -12 22 -39q6 -20 23 -61q12 -18 32 -54q8 -37 39 -102q16 -20 35 -21l25 7 q76 137 98 223q2 8 16 43q12 29 12.5 42t12.5 34.5t12 31.5q0 8 -4 15q-33 10 -71 30q-4 10 -27 25l4 18l-2 9q16 16 31 22q12 0 39 -2h39q32 1 61 1t55 -1q8 0 23.5 3t23.5 3q47 0 70 -18q4 -13 4 -19q0 -39 -53 -51q-66 -14 -78 -33q-20 -31 -39 -92q-20 -68 -37 -94 q-39 -66 -92 -176q-14 -35 -49 -105q-14 -14 -39 -47q-51 -83 -51 -114q0 -12 -12.5 -34t-24.5 -22q-29 0 -72 68q-2 33 -35 102q-45 96 -49 105q-4 29 -16 82q-23 45 -70 137q-23 63 -84 182q-14 20 -16 23q-8 8 -27 14q-31 10 -45 33l-16 12z" />
<glyph unicode="w" horiz-adv-x="1406" d="M70 729q2 10 20.5 28.5t30.5 18.5q10 0 39 -2h39q101 3 140 3q19 0 23 -1q23 -2 48 -8q2 -4 -2 -35q-25 -12 -52 -35q-4 -4 7.5 -30.5t11.5 -28.5q0 -35 6 -48t18 -36q10 -35 33 -100l25 -49q12 -16 24.5 -62.5t30.5 -64.5q8 -23 20 -50q6 -4 17.5 13.5t25.5 19.5 q6 14 17 39q18 20 49 72q29 68 29 80v6q0 12 8 29.5t8 27.5q0 12 -17.5 57t-17.5 58q0 29 -30 49q-16 4 -21 8q-29 14 -41 49q-6 20 47 35q37 8 64 8q25 0 71.5 -5t69.5 -5q25 0 63 4q47 6 64 6q31 2 43 -35q-14 -33 -53 -45t-41 -18h-25q-4 -6 -4 -55q0 -18 41 -82 q27 -43 53 -84q16 -29 17 -68q6 -31 33.5 -84t46.5 -71q12 8 94 188t82 201q0 14 -14.5 40.5t-23.5 32t-48 13.5q-27 4 -27 30q0 14 18 33q16 8 27 10q27 0 77 -5t73 -5q18 0 51 5t49 5q55 0 55 -43q0 -25 -28 -32q-45 -12 -48 -15q-16 -4 -30.5 -21.5t-52.5 -101.5 q-12 -20 -37 -63q-43 -90 -129 -268q-4 -18 -15 -54q-6 -16 -39 -65q-16 -39 -55 -113q-2 -2 -16.5 -15t-12.5 -15l5 -7q-8 -2 -25 -2l-25 6l-10 13q-8 33 -8 48t-81 186t-92 179.5t-30 18.5q-27 -43 -35 -68q-8 -4 -24 -45q-20 -49 -25 -57q-14 -18 -37.5 -62.5 t-58.5 -126.5l-8 -10q0 -4 -5 -16t-5 -19q-8 -12 -37 -28q-2 0 -23 -8q-14 -4 -18 0l-6 2q-2 12 -19 45q-10 10 -49 110q-20 51 -86 178q-35 68 -61 142q0 12 -6.5 34.5t-24.5 65.5q-10 27 -33 64q-6 6 0 18q4 12 -6 18q0 4 -13.5 10.5t-13.5 8.5q-31 14 -69 51z" />
<glyph unicode="x" horiz-adv-x="980" d="M76 733q0 14 12 27q4 16 16 18q47 -4 66 -4q14 -1 31 -1t39 1q53 4 69 4q123 0 154 -18l-2 -2l4 -2l2 -8h2l-3 -10q-3 -11 -3 -15l-2 -4q0 -2 -22.5 -7t-24.5 -7q12 -23 22 -25q2 0 2 -21q0 -8 37 -62t49 -69q2 -2 11.5 -32.5t13.5 -30.5t13 16.5t13 18.5q12 4 60.5 68.5 t46.5 76.5q0 10 -4 27q-2 6 -16 12q-12 23 -31 57q0 8 8 10.5t15.5 9.5t11.5 9q29 6 59 6h195q43 0 38 -20v2l7 -15q-4 -8 -4 -10l-9 -8q-104 -37 -104 -39q-59 -27 -84 -70q-43 -53 -113 -145q0 -8 -15 -26.5t-15 -34.5q0 -2 2 -7v-6q27 -14 73 -59q18 -29 56 -82 q16 -16 47 -49q0 -2 30 -55q18 -35 45 -50q12 -10 44 -24q49 -10 55 -12q29 -10 47 -35l-2 -2v-6q4 -31 -39 -31q-14 0 -46 4t-48 4q-25 0 -64 -4q-49 -6 -65 -6l-4 2q-8 0 -26.5 4t-29.5 4q-6 0 -18 -2t-19 -2h-2q-20 41 -20 33l51 32q-4 4 -29 37q-25 18 -51 64 q0 14 -22.5 45t-26.5 41q-10 8 -37 43l-37 -29q-18 -10 -67 -51q-16 -14 -29.5 -25.5t-23.5 -42.5q-2 -4 -13.5 -19t-11.5 -26q0 -12 12 -18q23 -10 47 -19q33 -16 33 -30q0 -33 -20 -33q-12 0 -19 -2q-9 -7 -29 -7q-8 0 -18 1l-55 8h-160q-6 0 -18.5 9t-18.5 9q6 4 12 37 q0 8 10.5 9t12.5 6q23 8 74 24q2 6 33 35q2 6 10 18q33 23 61 62q51 68 53 69q20 16 50 46q2 4 10 10t10 10q8 29 8 41q0 25 -35 55q-2 12 -12 31q-16 18 -49 51q-16 27 -55 78q-23 25 -64 51q-2 8 -12 19q-20 14 -55 30q-23 6 -47 11q-33 10 -33 24z" />
<glyph unicode="y" horiz-adv-x="878" d="M61 707q-3 3 -3 10.5t3 19.5q0 31 50 31q31 0 91 3t89 3q76 0 90 -20l18 -2q4 -8 4 -15q0 -4 -8 -12t-10 -8q-16 -10 -45 -35q4 -20 10 -53v-8q0 -43 21.5 -83t44.5 -77q57 -117 69 -158q20 -68 37 -92l4 -2v-2q23 25 43.5 82t28.5 63q2 8 37 97q25 68 24 96q0 -14 7 49 q2 35 -13 43q-4 10 -16 27q-2 4 -2 17t-32 16t-32 20q0 2 -4 10t-4 16q0 20 29 37q3 2 8 2q7 0 16 -4q17 -6 21 -6q23 0 80 -6q51 -4 80 -4q14 0 41.5 4t40.5 4q37 0 57 -12q0 -2 2 -6v-7q0 -45 -43 -51q-53 -6 -72 -37q-8 -23 -24 -63q-8 -18 -27.5 -56t-28.5 -57 q-10 -35 -34 -102q-29 -51 -78 -156q-18 -59 -64 -170q-20 -23 -55 -71q-14 -33 -57 -95q-8 -29 -39 -77q-18 -18 -37 -35q-14 -23 -45 -66q-70 -82 -156 -84q-53 -2 -37 -4q-12 0 -20 5t-23 24q-20 16 -20 47v16q8 12 14 17q16 59 60 59q4 0 11 -3t16 -2t30.5 -2t32.5 -3 q41 0 59 14q12 12 33 51q37 27 84 166q-10 72 -137 264q-14 43 -35 103.5t-90 193.5q-14 27 -27 54q-18 33 -68 82z" />
<glyph unicode="z" horiz-adv-x="802" d="M88 606q0 20 17.5 88t29.5 80t43 8h25q25 0 82 2h82q39 0 135 -4q86 -4 135 -4h2q20 0 58 4t57 4q14 0 22 -20v-10h-2q1 -2 1 -4q0 -23 -52 -93q-47 -61 -78 -92q-18 -25 -57 -73q-16 -14 -47 -46q-12 -20 -39 -59q-14 -8 -37 -27q-27 -29 -43 -61q-4 -12 -14 -37 q-27 -29 -56 -57q-39 -41 -39 -62q0 -12 9 -20q43 0 126.5 2t124.5 2q20 0 54 8q43 12 53 15q25 4 62.5 72.5t62.5 68.5q31 0 31 -43q0 -41 -33 -105.5t-66 -93.5q-59 -51 -155 -53q-16 0 -48 8t-49 8q-23 0 -67.5 -4t-69.5 -4q-199 0 -215 12l-12 2l-10 5q-6 18 -19 24v6 q-2 2 -2 4q0 43 29 88q10 14 74 72q43 39 124 143q18 27 58 80q20 18 61 60q27 45 90 125l-4 8q6 8 -49 26h-82q-55 -2 -84 -2q-18 0 -45 -10q-37 -16 -44 -19t-42 -42q-25 -27 -49 -27q-14 8 -26.5 17.5t-12.5 29.5z" />
<glyph unicode="{" horiz-adv-x="565" d="M106 481q137 80 140 250q0 61 -15.5 180t-15.5 176q-2 336 244 347l16 -11l2 -6q-20 -10 -31.5 -25.5t-25.5 -33.5q-74 -88 -74 -197q0 -57 14.5 -169.5t14.5 -166.5q2 -145 -113 -346l2 -4q0 -8 -8 -24q113 -96 113 -322q0 -55 -15.5 -168t-15.5 -170q0 -121 76 -194 q29 -14 73 -50v-10q-2 0 -10 -6q-55 4 -102 16q-88 25 -129 142q-31 88 -31 200q0 61 16.5 182.5t16.5 180.5q2 152 -129 209z" />
<glyph unicode="|" horiz-adv-x="692" d="M313 -279v1885h66v-1885h-66z" />
<glyph unicode="}" horiz-adv-x="565" d="M82 -453q6 2 10 13q23 8 60 30q80 68 77 240q0 57 -14 174t-14 176q0 168 123 289q-23 39 -64 111q-59 104 -59 260q0 53 12 159.5t12 159.5q0 129 -69 195q-25 16 -74 51l4 18l4 9q106 -6 150 -35q117 -80 118 -316q2 -94 -22 -260q-6 -31 -12 -92q-2 -94 53 -174 q20 -14 49 -47l29 -39q-86 -53 -111 -107q-18 -41 -18 -145q0 -55 15 -163.5t15 -164.5q0 -358 -264 -358z" />
<glyph unicode="~" horiz-adv-x="1216" d="M96 451q-2 100 74 182t176 82q94 0 299 -88q23 -6 64 -21q131 -57 184 -57q51 0 86 43q16 20 43 80q20 43 35 43l10 6q45 -29 45 -57l4 -7q0 -100 -73.5 -182t-174.5 -82q-98 0 -290.5 84t-243.5 84q-131 2 -156 -166q-41 10 -49 15q-33 14 -33 41z" />
<glyph unicode="&#xa1;" horiz-adv-x="686" d="M168 -184q0 47 12 127q20 123 21 123q10 84 12 94q14 70 39 82q2 2 2 37q0 -18 10 53q6 61 12 125q8 88 23 112q8 14 16 15q2 0 2 -2q31 -4 31 -205q0 -27 8.5 -82t8.5 -84q0 -41 -3 -29q-2 -20 9 -53q10 -39 10 -53q21 -109 41 -324q0 -63 -27 -112q-33 -59 -92 -60 q-59 0 -100 94q-35 78 -35 142zM176 844q0 47 43 90t90 43q51 0 88 -45t37 -98q0 -43 -48 -79t-95 -36q-41 0 -78 42t-37 83z" />
<glyph unicode="&#xa2;" horiz-adv-x="878" d="M72 313q0 -16 6 35q-2 -18 -2 72q0 152 149 276q141 121 293 119q47 0 88 -8q27 39 74 121q37 25 39 24q31 -14 47 -24q-20 -43 -66 -125q-6 -10 -12 -17q105 -40 105 -108q0 -8 -5 -21q-8 -33 -16 -63q-10 -20 -61 -21q-45 0 -66.5 24t-40.5 46l-4 -8 q-92 -184 -182 -328q-12 -25 -37 -74q-12 -23 -37 -59q16 -2 47 -12q80 -35 152 -41q59 0 112.5 29.5t67.5 29.5q29 0 32 -4t3 -33t-62.5 -78t-95.5 -59q-59 -16 -135 -16q-109 0 -195 49q-37 -66 -65 -121l-39 -31l-51 23q6 14 78 131q6 12 16 35q-18 10 -51 33 q-6 16 -23 45q-31 51 -41 75q-20 45 -22 84zM250 430q0 2 10 -98q6 -70 33 -111q12 27 37 78q20 37 61 109q29 47 84 143q16 37 55 108q5 7 13 21q-31 4 -115 4q-25 0 -45 -10l-8 -12q-6 -4 -45 -51.5t-41 -53.5q-39 -35 -39 -127z" />
<glyph unicode="&#xa3;" horiz-adv-x="1003" d="M145 18q139 201 164 285q16 57 35 299q-35 -4 -76 -4q-98 0 -98 37q-2 55 180 57q18 201 31 254q33 141 125 221q111 96 256 97q131 0 207 -105q12 -14 12 -31q0 -27 -31.5 -53t-54.5 -26q-20 0 -95 59t-112 59q-80 0 -110 -71q-18 -39 -31 -138l-27 -260q381 18 395 19 q35 0 29 -37q0 -39 -33 -57q-25 -14 -397 -15q-23 -219 -29 -243q-27 -100 -133 -220q47 2 97 2q55 0 166.5 -13t168.5 -13q51 0 100.5 64.5t65.5 64.5q39 0 39 -39q0 -94 -63.5 -157.5t-165.5 -63.5q-61 0 -181 24.5t-184 24.5q-119 -2 -172 -45q-16 -14 -28 -21l-15 -4 q-47 0 -35 49z" />
<glyph unicode="&#xa6;" horiz-adv-x="489" d="M184 -33v602h121v-602h-121zM184 803v602h121v-602h-121z" />
<glyph unicode="&#xa7;" horiz-adv-x="1048" d="M139 530q-2 106 57.5 189.5t155.5 118.5q-145 104 -145 249q0 131 105.5 212t277.5 81q195 0 284 -112l-63 -99l-94 78q-68 47 -146 47q-92 0 -156.5 -46t-62.5 -113q2 -88 142 -195q133 -92 264 -184q143 -117 151 -230q14 -205 -217 -309q147 -104 148 -260 q0 -127 -107.5 -209t-275.5 -82q-184 0 -285 113l61 100q145 -127 242 -127q94 0 157.5 46t61.5 116q-4 92 -147 205q-131 96 -264 192q-141 117 -144 219zM295 582q0 -125 323 -324q138 76 138 217q0 88 -328 320q-133 -84 -133 -213z" />
<glyph unicode="&#xa8;" horiz-adv-x="823" d="M139 1090q0 53 43 81.5t70 28.5q25 0 59 -29q47 -38 47 -81q0 -41 -53 -78t-65 -37q-53 0 -84 57q-16 31 -17 58zM520 1083q0 27 31 68q41 53 80 53q23 0 35 -14t24 -31q2 -2 39 -24q14 -10 14 -41q-2 -66 -43 -86q-61 -31 -69 -31q-45 0 -82 43q-29 43 -29 63z" />
<glyph unicode="&#xa9;" horiz-adv-x="1587" d="M86 678q0 293 208 499.5t501 206.5t500.5 -206.5t207.5 -499.5t-208 -501t-500 -208q-293 0 -501 208t-208 501zM158 678q0 -264 186 -450.5t451 -186.5q262 0 449.5 186.5t187.5 450.5q0 262 -187.5 448.5t-449.5 186.5q-264 0 -450.5 -186.5t-186.5 -448.5zM401 657 q0 182 117 308q129 141 344 131q35 -2 94.5 -15.5t79.5 -13.5q37 0 47 31h39l15 -271h-41q-27 96 -92 154q-72 61 -168 61q-129 0 -211 -124q-74 -115 -74 -271q0 -137 63 -227q70 -102 195 -105q180 -4 295 125l43 -18q-133 -174 -336 -174q-35 0 -74 6q-160 23 -252 143 q-84 109 -84 260z" />
<glyph unicode="&#xaa;" horiz-adv-x="802" d="M229 1108q0 39 43 63q14 10 47 25q106 35 177 37q25 0 41 6q6 16 12 49q0 49 -45 70q-35 14 -70 16q-14 0 -37.5 -13t-27.5 -25.5t-25 -43.5q-16 -12 -57 -18q-10 2 -19 10q-18 10 -18 35q0 16 20 35q14 14 31 28q10 2 31 11q90 43 162 43q131 -2 168 -95q10 -27 8 -43 q2 -8 2 -26q0 -16 -5 -51t-5 -54q0 -78 18 -108q12 -4 22 -4l5 2q2 0 22 10q8 2 25 2q8 0 16 -4l8 -16l-4 -9q-37 -33 -61 -36q-10 -4 -27.5 -12.5t-30.5 -8.5q-57 0 -73 16l-7 11l-8 14q-4 6 -10 16q-12 -4 -43 -26q-53 -31 -121 -35q-31 -2 -26 -2q-14 0 -31 6 q-96 20 -100 78l-5 6q-4 29 -2 41zM356 1114q0 -45 15 -47q20 -12 61 -16q25 0 60.5 13t46 25.5t10.5 47.5q0 8 -1 13t-3 7q2 6 2 12q-2 2 -4 10.5t-6 8.5q2 0 -70 -14q-14 -2 -39 -7.5t-48.5 -21t-23.5 -31.5z" />
<glyph unicode="&#xab;" horiz-adv-x="952" d="M133 494q0 41 72 102q0 20 80 74v4q59 61 186 162q4 6 10 6l8 -4l23 -25q-4 -33 -88 -151q-92 -127 -107 -168q23 -37 70 -111q37 -49 72 -98q41 -60 57 -109q-4 -37 -37 -37q-12 0 -63 49q-43 41 -131 123q-18 31 -62 82q-18 18 -57 56q-14 12 -31 34q-2 2 -2 11z M438 496q0 41 72 102q0 20 80 74v4q59 61 186 162q4 6 10 6l9 -4l22 -25q-4 -33 -88 -151q-92 -127 -106 -168l69 -111q37 -49 72 -98q41 -60 57 -107q-4 -39 -37 -39q-12 0 -63 49q-43 41 -131 123q-18 31 -62 82q-18 18 -57 56q-14 12 -31 34q-2 2 -2 11z" />
<glyph unicode="&#xad;" horiz-adv-x="724" d="M59 346q0 8 38 70.5t46 66.5q12 6 43 0q41 0 123 6.5t121 6.5q18 0 55 -2t56 -2q25 0 53.5 15t44.5 15q29 1 29 -30q2 -66 -72 -140q-6 -12 -27 -33q-6 -2 -24 -2q-12 0 -38 5.5t-40 5.5q-27 0 -80 -5.5t-80 -5.5q-16 0 -51 3.5t-53 3.5t-49 -10.5t-45 -10.5 q-49 -2 -50 43z" />
<glyph unicode="&#xae;" horiz-adv-x="1587" d="M86 672q0 295 207 501.5t500 206.5t500.5 -207.5t207.5 -500.5t-208 -500t-500 -207q-293 0 -500 207t-207 500zM158 672q0 -264 185 -450.5t450 -186.5q264 0 450.5 186.5t186.5 450.5t-186.5 450.5t-450.5 186.5t-449.5 -186.5t-185.5 -450.5zM422 279v34 q55 0 78.5 19.5t23.5 77.5v557q0 68 -14 83t-76 15v37h363q131 0 209 -68q70 -63 69 -151q0 -74 -52 -131.5t-149 -73.5l228 -305q43 -57 98 -60v-34h-190l-283 383h-65v-287q0 -61 108 -62v-34h-348zM662 707q129 12 190 41q94 45 88 143q-10 154 -278 139v-323z" />
<glyph unicode="&#xaf;" horiz-adv-x="804" d="M72 1030q-2 14 0 21q0 37 18.5 68.5t52.5 31.5q33 0 95.5 -5t89.5 -5q39 2 116 4q72 -2 129 0q10 0 31 3t31 3q18 0 20 -8q66 -33 66 -43q0 -16 -15.5 -39t-16.5 -29t-1 -18q-8 -8 -29 -4q-20 0 -64 2t-67 2q-18 0 -51 -4t-45 -4q-16 2 -49 2q-33 -2 -102 -4q-10 0 -35 3 t-39 3h-31q-23 -2 -29 -2q-23 0 -67 8q-6 0 -8 14z" />
<glyph unicode="&#xb0;" horiz-adv-x="657" d="M88 1214q0 102 72.5 174t173.5 72q100 0 169.5 -71.5t71.5 -171.5q2 -102 -68.5 -176t-172.5 -74t-174 72.5t-72 174.5zM156 1210q0 -74 52 -127t126 -53t124 55t50 129t-51 126.5t-125 52.5t-125 -54.5t-51 -128.5z" />
<glyph unicode="&#xb2;" horiz-adv-x="569" d="M25 809q6 8 114 123q2 2 68 82q14 12 39 39q25 37 45 94q29 84 35 94q-2 18 -9 45l-2 19q-10 14 -18 30q-20 10 -45 19q-8 -2 -25 -6q-20 -14 -28 -43l2 -7v2q8 -12 8 -30q0 -14 -23.5 -32.5t-38.5 -25.5q-31 4 -49 35q-10 31 -22 60q0 20 14 59q20 25 57 74 q63 33 127 33q35 0 58.5 -13.5t48.5 -27.5q86 -39 86 -134q0 -10 4 -25.5t4 -25.5q0 -76 -98 -194l-152 -168q59 -2 105 -2q104 0 141 65q20 16 37 17q37 0 37 -35q0 -10 -30 -84t-36 -82q-14 -14 -37 -14q-39 0 -117.5 3t-119.5 3q-12 0 -38 -3t-40 -3q-68 0 -88 14l2 -4 l-10 8q-6 31 -6 41z" />
<glyph unicode="&#xb3;" horiz-adv-x="569" d="M35 848q0 63 71 63q49 0 68 -41q10 -20 21 -41q23 -16 32 -16q150 0 150 182q0 35 -72 97v-2q-8 10 -67 26l2 21q-4 -16 -2 -21h-9q-51 0 -59 2q-33 8 -33 39q0 53 60 53q8 0 10 -8v4q18 10 63 23q23 4 60 45q4 10 10 31q-6 12 -8 32q-31 23 -53 23q-12 0 -29 -4 q-23 -6 -29 -8q-61 -45 -88 -45q-37 0 -37 45q0 10 29 45q37 45 39 47q63 33 127 33q35 0 58.5 -13.5t45.5 -27.5q88 -41 88 -115q0 -59 -29.5 -87t-58.5 -50l6 -9v5q134 -37 134 -156t-95.5 -208t-216.5 -89q-72 0 -123 27q-66 35 -65 98z" />
<glyph unicode="&#xb4;" horiz-adv-x="823" d="M199 965q0 10 20 36q18 16 51 52q59 80 187 233q37 39 82 39q37 0 70.5 -24.5t33.5 -59.5q0 -43 -45 -84q-35 -31 -182 -123q-158 -98 -185 -96q-33 2 -32 27z" />
<glyph unicode="&#xb6;" horiz-adv-x="962" d="M49 1038q0 166 87 249t280 91q10 0 94 -2q94 -4 145 -4q49 0 129 4t84 4v-22q-16 -8 -29.5 -46t-13.5 -75v-1262q0 -100 43 -120v-23q-23 2 -141 6v1448h-70v-1448q-68 0 -151 -6v23q43 20 43 120v1311q-59 10 -121 6q-178 -12 -178 -266q0 -227 201 -315q47 -20 41 -58 q-4 -20 -41 -26q-176 31 -283 133q-119 111 -119 278z" />
<glyph unicode="&#xb8;" horiz-adv-x="745" d="M172 -305q0 8 2 6t11.5 12.5t13.5 14.5q8 0 25.5 -4.5t25.5 -4.5q92 0 96 48v4l-2 4q-4 8 -6 9t-5 5t-9 18v5q0 31 -9 49q-2 4 -18 20q-12 10 -8 21q-2 2 8 30.5t14 32.5l6 10q4 2 14.5 12.5t16.5 10.5q6 -2 19 -8q0 -2 8 -8.5t8 -10.5q-8 -29 -14 -34q14 -20 18 -22.5 t31 -2.5q53 0 98 -40t45 -91q0 -72 -65 -117q-57 -39 -134 -39h-55q-16 0 -63 8q-39 6 -50.5 15.5t-21.5 46.5z" />
<glyph unicode="&#xb9;" horiz-adv-x="569" d="M86 795q2 31 57.5 39t57.5 69v144q0 10 3 33.5t3 33.5q0 6 -3 16.5t-3 16.5q0 27 3 90t3 96v21q-33 0 -76 -2q-14 4 -28.5 10t-14.5 29q0 29 78 51q10 2 86 31q63 25 76 24q27 0 34 -31q8 -12 9 -20q0 -31 -7.5 -90.5t-7.5 -89.5q6 -8 6 -15q0 -49 -4 -155 q-2 -98 -2 -154q0 -72 35 -104q62 -4 82 -31l10 -6q-4 -51 -45 -51q-29 0 -89 2t-89 2q-16 0 -49 -2t-51 -2q-43 0 -35 0q-16 6 -31 24l4 -10l-4 4q0 8 -4 12l2 -4l-2 12z" />
<glyph unicode="&#xba;" horiz-adv-x="849" d="M229 1214q0 59 45 111l13 12q33 47 112 78q74 27 146 27q88 0 147 -35q10 -6 58 -53q14 -10 26 -35q20 -20 21 -41q0 -10 5 -31t5 -33q0 -82 -87 -156.5t-183 -74.5q-86 0 -129 10q-49 14 -111 58q-4 10 -33 43q-35 37 -35 120zM352 1237q0 -25 2 -18q0 -31 17 -76 q16 -51 39 -66q12 -6 36 -22q41 -27 70 -25q94 0 125 68q4 10 12 18l6 12q6 10 7 37q0 10 2 30t2 28q2 53 -33 103t-92 63l4 4l-2 -4q-25 4 -35 4q8 0 -43 -11q-41 -8 -53 -20l-17 -16q-6 -8 -18 -25q-2 -4 -12 -14l-4 -2q-4 -4 -5 -7q-14 -43 -8 -61z" />
<glyph unicode="&#xbb;" horiz-adv-x="952" d="M123 178q20 51 63 109q68 94 70 98q25 37 72 111q-55 86 -119 206q-23 43 -72 105l-2 12l33 23q8 -2 8 0q8 0 46 -34t40 -38q33 -33 98 -96q154 -125 152 -174q0 -23 -45 -64l-59 -55q-23 -29 -48 -64q-20 -25 -105 -100.5t-93 -73.5q-35 0 -39 35zM430 178q18 63 45 90 q43 43 49 51q39 57 111 177q-41 63 -90 139q-4 8 -12.5 24.5t-14.5 22.5v6q-6 14 -47 70q-33 43 -33 76q0 23 17 22q25 0 125 -94q59 -57 118 -115q31 -10 60 -47l2 -6q59 -55 59 -90q0 -27 -90 -119q-61 -57 -121 -115q-8 -8 -57 -75q-31 -41 -74 -58q-4 0 -12 4l-4 2 l-27 25z" />
<glyph unicode="&#xbc;" horiz-adv-x="1482" d="M147 795q2 31 58.5 39t56.5 69v144q0 10 3 33.5t3 33.5q0 6 -3 16.5t-3 16.5q0 27 4 90t2 96v21q-33 0 -73 -2q-16 4 -30.5 10t-14.5 29q0 29 77 51q10 2 86 31q63 25 76 24q27 0 35 -31q10 -12 10 -20q0 -31 -7 -90.5t-9 -89.5q6 -8 6 -15q0 -49 -2 -155q-4 -98 -4 -154 q0 -72 35 -104q61 -4 84 -31l10 -6q-6 -51 -45 -51q-31 0 -90.5 2t-89.5 2q-16 0 -49 -2t-50 -2q-45 0 -35 0q-18 6 -32 24l4 -10l-4 4q0 8 -4 12l2 -4l-2 12zM340 -63q0 27 205 479q186 414 243 526q51 100 148 305q23 70 86 195q16 25 49 24q27 0 76 -41q-14 -20 -39 -86 q-23 -47 -68 -139q-33 -51 -94 -158q-113 -238 -336 -712q-45 -104 -145 -312q-70 -125 -92 -124q-33 0 -33 43zM793 229q0 43 18 68q23 33 25 41q27 41 86 121q18 20 57 59l16 31q37 68 95 110q4 10 20 17q8 14 27 45q14 4 28 4q25 0 37 -43q2 -6 -4 -6q8 -14 12 -53h-4 l6 -13q4 -47 5 -75q0 -31 -4.5 -94.5t-4.5 -94.5q0 -29 6 -43h11q2 -2 4 -2q8 0 22.5 4t20.5 4q12 0 30.5 -11t18.5 -24l-6 -8l4 -4q-8 -74 -68 -67q-6 -2 -37 -11l3 2l-7 -2l-2 -32q0 -39 33 -70q61 -4 84 -31l10 -6q-6 -51 -45 -51q-29 0 -85 2t-83 2q-16 0 -50 -2t-50 -2 q-43 0 -35 0q-16 6 -31 24l5 -10l-5 4q-2 8 -4 13l2 -5l-2 13l-4 6q2 27 37 37q27 6 55 12q20 10 23 41v51h-57h-140l-6 4l-26 -2q-41 0 -41 47zM924 297q43 4 63 4h21l45 -2l12 -8q0 8 -3 24.5t-3 24.5q0 12 6 36.5t6 37.5q0 10 -4 37q-2 23 0 36q-20 -31 -63 -84 q-37 -40 -80 -106z" />
<glyph unicode="&#xbd;" horiz-adv-x="1482" d="M133 795q2 31 58.5 39t56.5 69l2 144q0 10 2 33.5t2 33.5q0 6 -3 16.5t-3 16.5q0 27 4 90t2 96v21q-33 0 -74 -2q-16 4 -29.5 10t-13.5 29q0 29 78 51q8 2 84 31q63 25 76 24q27 0 35 -31q10 -12 10 -20q0 -31 -7 -90.5t-7 -89.5q4 -8 4 -15q0 -49 -2 -155 q-2 -98 -2 -154q0 -72 32 -104q61 -4 84 -31l10 -6q-6 -51 -45 -51q-31 0 -90 2t-90 2q-16 0 -49 -2t-49 -2q-45 0 -35 0q-18 6 -33 24l4 -10l-4 4q0 8 -4 12l2 -4l-2 12zM326 -63q0 27 204 479q188 414 244 526q51 100 148 305q23 70 86 195q16 25 49 24q27 0 76 -41 q-14 -20 -39 -86q-23 -47 -68 -139q-33 -51 -94 -158q-113 -238 -336 -712q-45 -104 -145 -312q-70 -125 -93 -124q-33 0 -32 43zM829 51q6 8 115 123q2 2 68 82q14 12 39 39q23 37 43 94q31 84 34 94q0 18 -6 45l-2 19q-10 14 -20 31q-18 10 -45 18q-6 -2 -23 -6 q-20 -14 -28 -43l2 -6v2q6 -12 6 -31q0 -14 -22.5 -32.5t-37.5 -24.5q-31 4 -49 34q-10 31 -22 60q0 20 12 59q23 25 59 74q63 33 127 33q33 0 57.5 -13.5t47.5 -27.5q88 -39 88 -133q0 -10 4 -25.5t4 -26.5q0 -76 -98 -194l-152 -168q59 -2 105 -2q104 0 139 65 q23 16 39 17q37 0 37 -35q0 -10 -30 -84t-36 -82q-14 -14 -37 -14q-41 0 -119.5 3t-117.5 3q-12 0 -38 -3t-40 -3q-68 0 -88 14l2 -4l-10 8q-6 31 -7 41z" />
<glyph unicode="&#xbe;" horiz-adv-x="1482" d="M133 848q0 63 70 63q49 0 67 -41q10 -20 21 -41q23 -16 35 -16q147 0 147 182q0 35 -72 97l2 -2q-8 10 -67 26v21q-4 -16 -2 -21h-8q-51 0 -60 2q-31 8 -30 39q0 53 59 53q6 0 8 -8v4q18 10 64 23q23 4 59 45q4 10 10 31q-4 12 -8 32q-31 23 -53 23q-10 0 -29.5 -5 t-28.5 -7q-61 -45 -88 -45q-35 0 -34 45q0 10 26 45q37 45 39 47q63 33 127 33q35 0 58.5 -13.5t48.5 -27.5q88 -41 88 -115q0 -59 -35 -90q-27 -25 -53 -47l6 -9v5q131 -37 131 -156t-95.5 -208t-216.5 -89q-70 0 -122 27q-63 35 -64 98zM354 -63q0 27 207 479 q186 414 242 526q51 100 147 305q25 70 86 195q18 25 49 24q27 0 76 -41q-12 -20 -39 -86q-23 -47 -67 -139q-33 -51 -94 -158q-111 -238 -336 -712q-45 -104 -146 -312q-68 -125 -92 -124q-33 0 -33 43zM807 229q0 43 18 68q25 33 25 41q29 41 86 121l59 59l15 31 q39 68 94 110q6 10 20 17q8 14 29 45q14 4 27 4q25 0 39 -43q2 -6 -5 -6q6 -14 11 -53h-2l4 -13q6 -47 6 -75q0 -31 -5 -94.5t-5 -94.5q0 -29 8 -43h8q4 -2 6 -2q6 0 20.5 4t22.5 4q12 0 30.5 -11t18.5 -24l-6 -8l4 -4q-8 -74 -67 -67q-6 -2 -37 -11l2 2l-8 -2v-32 q0 -39 32 -70q62 -4 82 -31l11 -6q-4 -51 -45 -51q-27 0 -83.5 2t-84.5 2q-16 0 -49 -2t-50 -2q-45 0 -34 0q-18 6 -33 24l4 -10l-4 4q0 8 -4 13l2 -5l-2 13l-4 6q2 27 38 37l54 12q20 10 24 41v51h-57h-141l-7 4l-24 -2q-43 0 -43 47zM940 297q41 4 64 4h20l43 -2l12 -8 q0 8 -2 24.5t-2 24.5q0 12 5 36.5t5 37.5q0 10 -2 34.5t-2 38.5q-18 -31 -61 -84q-39 -40 -80 -106z" />
<glyph unicode="&#xbf;" horiz-adv-x="839" d="M106 -92q0 84 3 117q2 18 39.5 93t52.5 91q29 29 49 47q57 39 133 100q37 102 86 209q4 23 23 25q14 0 26 -70q10 -59 10 -90q0 -78 -8 -90q-18 -37 -102 -104q-18 -14 -84 -101q-49 -63 -49 -139q0 -92 10 -117q14 -33 55 -59.5t78 -26.5q12 0 147 25q12 8 18.5 8t22 12 t17.5 10l8 -2q12 -12 23.5 -23t13.5 -34q-4 -10 -12 -35q-14 -45 -25 -55q-20 -16 -41 -35q-23 -8 -20 -8l-43 -16h-21q-61 0 -51 -2q-8 -2 -27 -3q-115 0 -219 78q-113 82 -113 195zM350 868q0 41 42 83t85 42t83 -41t40 -86q0 -55 -36 -94t-91 -39q-33 0 -68.5 24.5 t-50.5 53.5q-4 8 -4 57z" />
<glyph unicode="&#xc0;" horiz-adv-x="1232" d="M27 27q0 14 8 26q33 25 47 37q61 14 94 72q18 31 113 315q29 59 78 174q76 190 125 375q8 31 34 78q31 57 39 78q20 74 51 155l7 15q2 10 8 26q106 74 139 72q35 -2 35 -25q0 -20 -2 -63t-2 -66q0 -20 16 -45q18 -33 23 -45q6 -20 20 -59q2 -20 10 -57l52 -113 q18 -55 59 -166q27 -53 70 -160q6 -31 20 -94q18 -35 47 -106q86 -274 112.5 -307t74 -61t49.5 -32t16 -18q-12 -39 -100 -39q-45 0 -205 2q-129 2 -207 0q-20 20 -20 33q0 27 62.5 48t66.5 27q20 16 23 36l3 20q0 27 -24 86q-16 41 -33.5 85l-52.5 132q0 2 -3 7t-6 5 q-76 23 -79 21h-181q-121 -2 -182 -2q-57 -47 -92 -246q-2 -6 -9 -27.5t-7 -34.5q0 -35 32 -77q39 -14 78 -27q51 -20 51 -49q0 -35 -39 -35q-25 0 -76 2t-77 2q-14 0 -45 -4t-47 -4q-27 0 -74 2q-61 4 -78 4q-23 0 -22 27zM291 1853q0 37 33.5 61.5t68.5 24.5q45 0 82 -38 q61 -80 187 -234q18 -16 53 -51q20 -27 20 -37q0 -29 -33 -29q-25 0 -182 99q-147 92 -182 123q-47 43 -47 81zM465 621l8 -7q90 -4 268 -4q62 1 95 15q-27 59 -52 139q-23 39 -61 121q-16 55 -31 112q-23 82 -45 95q-4 4 -6 8q-16 -10 -57 -135q-23 -78 -47 -156 q-37 -111 -72 -188z" />
<glyph unicode="&#xc1;" horiz-adv-x="1232" d="M27 27q0 14 8 26q33 25 47 37q61 14 94 72q18 31 113 315q29 59 76 174q82 211 127 375q8 31 34 78q31 57 39 78q20 74 51 155l7 15q2 10 8 26q106 74 139 72q35 -2 35 -25q0 -20 -2 -63t-2 -66q0 -20 16 -45q18 -33 23 -45q6 -20 20 -59q2 -20 10 -57l52 -113 q18 -55 59 -166q27 -53 70 -160q6 -31 20 -94q18 -35 47 -106q86 -274 112.5 -307t74 -61t49.5 -32t16 -18q-12 -39 -100 -39q-45 0 -205 2q-129 2 -207 0q-20 20 -20 33q0 27 62.5 48t66.5 27q20 16 23 36l3 20q0 27 -24 86q-16 41 -33.5 85l-52.5 132q0 2 -3 7t-6 5 q-76 23 -79 21h-181q-121 -2 -182 -2q-57 -47 -92 -246q-2 -6 -9 -27.5t-7 -34.5q0 -35 32 -77q39 -14 78 -27q51 -20 51 -49q0 -35 -39 -35q-25 0 -76 2t-77 2q-14 0 -45 -4t-47 -4q-27 0 -74 2q-61 4 -78 4q-23 0 -22 27zM465 621l8 -7q90 -4 268 -4q62 1 95 15 q-27 59 -52 139q-23 39 -61 121q-16 55 -31 112q-23 82 -45 95q-4 4 -6 8q-16 -10 -57 -135q-23 -78 -47 -156q-37 -111 -72 -188zM510 1579q0 10 20 37q18 16 52 51q59 80 188 234q37 39 80 38q37 0 70.5 -24.5t33.5 -59.5q0 -43 -45 -83q-35 -31 -182 -123 q-158 -98 -184 -97q-33 2 -33 27z" />
<glyph unicode="&#xc2;" horiz-adv-x="1236" d="M31 27q0 14 8 26q33 25 47 37q61 14 96 72q16 27 113 315q29 59 76 174q82 211 127 375q8 31 34 78q31 57 39 78q20 74 52 155l4 15q2 10 10 26q106 74 139 72q35 -2 33 -25q0 -16 -2 -63v-66q0 -18 16 -45q18 -33 23 -45q6 -20 18 -59q2 -18 13 -57l51 -113 q18 -55 57 -166q27 -53 70 -160q6 -31 20 -94q18 -35 47 -106q84 -272 117 -310q25 -29 72 -57.5t49 -32.5t16 -18q-14 -39 -102 -39q-45 0 -205 2q-127 2 -205 0q-20 20 -20 33q0 27 61.5 48t65.5 27q20 16 23 36l3 20q0 27 -24 86q-16 41 -33.5 85l-52.5 132q0 2 -3 7 t-5 5q-76 23 -80 21h-181q-121 -2 -182 -2q-57 -47 -92 -246q-2 -6 -9 -27.5t-7 -34.5q0 -35 32 -77q39 -14 78 -27q51 -20 51 -49q0 -35 -36 -35q-25 0 -77 2t-79 2q-14 0 -45 -4t-47 -4q-27 0 -74 2q-61 4 -78 4q-23 0 -22 27zM379 1559q0 20 122 175.5t148 176.5 q16 12 45 16q27 0 56.5 -12t148.5 -174t119 -189q0 -23 -33 -22q-27 0 -155 99.5t-138 99.5q-6 0 -131 -102.5t-143 -102.5q-12 0 -26.5 12t-12.5 23zM469 621l8 -7q90 -4 268 -4q64 1 93 15q-27 59 -52 139q-23 39 -59 121q-16 55 -31 112q-23 82 -47 95q-4 4 -6 8 q-16 -10 -57 -135q-23 -78 -47 -156q-33 -98 -70 -188z" />
<glyph unicode="&#xc3;" horiz-adv-x="1298" d="M37 29q0 14 8 26q33 25 47 37q61 14 94 72q18 31 113 315q29 59 76 174q82 211 127 375q8 31 35 78q31 57 38 78q20 74 52 155l6 15q2 10 8 26q106 74 139 72q35 -2 35 -25q0 -20 -2 -63t-2 -66q0 -20 16 -45q18 -33 23 -45q6 -20 20 -59q2 -20 11 -57l51 -113 q18 -55 59 -166q27 -53 70 -160q6 -31 20 -94q18 -35 47 -106q86 -274 113 -307t74 -61t49 -32t16 -18q-12 -39 -100 -39q-45 0 -205 2q-129 2 -207 0q-20 20 -20 33q0 27 61.5 48t65.5 27q18 14 23 35l6 21q0 27 -25 86q-16 41 -33.5 85l-52.5 132q0 2 -3 7t-5 5 q-76 23 -80 21h-180q-121 -2 -183 -2q-57 -47 -92 -246q-2 -6 -9 -27.5t-7 -34.5q0 -35 33 -77q39 -14 77 -27q51 -20 52 -49q0 -35 -39 -35q-25 0 -76 2t-78 2q-14 0 -45 -4t-47 -4q-27 0 -74 2q-61 4 -78 4q-23 0 -22 27zM416 1632q0 76 46 138.5t120 62.5q49 0 135 -45h6 q53 -33 137 -68q57 -2 84 47q-2 -2 -2 19q0 49 31 49q39 0 41 -33q2 -4 2 -14q0 -72 -49 -130.5t-119 -58.5q-45 0 -160 55.5t-129 55.5q-8 0 -23.5 -5t-23.5 -5t-16 -31q-12 -37 -13 -37q-8 -33 -28 -33h-4q-35 0 -35 33zM475 623l8 -7q90 -4 269 -4q61 1 94 15 q-27 59 -51 139q-23 39 -62 121q-16 55 -31 112q-23 82 -45 95q-4 4 -6 8q-16 -10 -57 -135q-23 -78 -47 -156q-37 -111 -72 -188z" />
<glyph unicode="&#xc4;" horiz-adv-x="1300" d="M37 29q0 14 8 26q33 25 47 37q61 14 96 72q27 43 111 315q29 59 78 174q76 190 127 375q8 31 35 78q31 57 39 78q20 74 49 155l6 15q2 10 8 26q106 74 139 72q35 -2 35 -25q0 -20 -2 -63t-2 -66q0 -20 16 -45q20 -33 25 -45q8 -18 18 -59q2 -20 11 -57q2 -4 53 -113 q18 -55 57 -166q27 -53 70 -160q6 -31 20 -94q18 -35 47 -106q86 -274 113 -307t74 -61t49 -32t16 -18q-12 -39 -100 -39q-45 0 -205 2q-129 2 -207 0q-20 20 -20 33q0 27 62.5 48t66.5 27q20 16 23 36l4 20q0 27 -25 86q-16 41 -33.5 85l-52.5 132q0 2 -3 7t-5 5 q-76 23 -80 21h-180q-121 -2 -183 -2q-57 -47 -92 -246q-2 -6 -9 -27.5t-7 -34.5q0 -35 33 -77q39 -14 77 -27q51 -20 52 -49q0 -35 -39 -35q-25 0 -76 2t-78 2q-14 0 -45 -4t-47 -4q-27 0 -74 2q-61 4 -78 4q-23 0 -22 27zM442 1704q0 55 43 83t70 28q25 0 59 -29 q48 -39 48 -82q0 -41 -53.5 -78t-63.5 -37q-53 0 -86 58q-16 29 -17 57zM475 623l8 -7q90 -4 271 -4q63 1 92 15q-27 59 -51 139q-23 39 -60 121q-16 55 -30 112q-23 82 -48 95q-4 4 -6 8q-16 -10 -57 -135q-23 -78 -47 -156q-37 -111 -72 -188zM821 1698q0 27 33 67 q43 53 78 54q23 0 35 -14.5t24 -30.5q2 -2 37 -25q16 -10 16 -41q0 -66 -40 -86q-61 -31 -72 -31q-45 0 -82 43q-29 43 -29 64z" />
<glyph unicode="&#xc5;" horiz-adv-x="1234" d="M29 29q0 14 8 26q33 25 47 37q61 14 96 72q27 43 111 315q29 59 78 174q76 190 127 375q8 31 34 78q31 57 39 78q20 74 52 155l4 15q2 10 8 26q106 74 139 72q35 -2 35 -25q0 -20 -2 -63t-2 -66q0 -20 16 -45q20 -33 25 -45q8 -18 18 -59q2 -20 10 -57q2 -4 54 -113 q18 -55 57 -166q27 -53 70 -160q6 -31 20 -94q18 -35 47 -106q86 -274 113 -307t75 -61t52 -33t12 -17q-12 -39 -100 -39q-45 0 -205 2q-127 2 -205 0q-20 20 -20 33q0 27 61.5 48t65.5 27q20 16 23 36l3 20q0 27 -24 86q-16 41 -33.5 85l-52.5 132q0 2 -3 7t-5 5 q-76 23 -80 21h-181q-121 -2 -182 -2q-57 -47 -92 -246q-2 -6 -9 -27.5t-7 -34.5q0 -35 32 -77q39 -14 78 -27q51 -20 51 -49q0 -35 -36 -35q-25 0 -77 2t-79 2q-14 0 -45 -4t-47 -4q-27 0 -74 2q-61 4 -78 4q-23 0 -22 27zM469 623l8 -7q90 -4 271 -4q63 1 92 15 q-27 59 -52 139q-23 39 -59 121q-16 55 -31 112q-23 82 -47 95q-4 4 -6 8q-16 -10 -57 -135q-23 -78 -47 -156q-37 -111 -72 -188zM471 1786q0 -16 10 33q37 176 197 178q86 0 149.5 -61.5t63.5 -149.5q0 -84 -60.5 -146.5t-144.5 -62.5q-35 0 -84 27q-131 72 -131 182z M567 1794q0 -49 35 -85t84 -36q43 0 74 33t33 76q0 -2 -19 71q-37 45 -72 50q-8 -6 -34 -7q-41 0 -71 -30.5t-30 -71.5z" />
<glyph unicode="&#xc6;" horiz-adv-x="1845" d="M37 29q4 18 19.5 28.5t49.5 34.5q63 14 109 72q25 31 180 315q41 61 113 174q74 123 209 375q14 31 51 78q43 57 55 78q20 41 62 121q-16 20 -47 28q-51 14 -50 29q0 63 99 63q82 0 123 -2q53 2 104 4q-2 -12 393 -12q39 0 118 4t118 4q14 0 50 -16t36 -27v-73 q-2 -49 -2 -77t-17 -48q-4 -16 -7 -21.5t-9 -10.5t-18 -9q-16 0 -94 88t-152 88h-123q-82 -2 -123 -2q-27 0 -42 -12.5t-25 -12.5l-3 -6q-59 -20 -57 -74q0 -18 6 -54t6 -56q-2 -94 -2 -166q0 -4 -2 -12.5t-2 -14.5q0 -10 4 -39q0 -8 -2 -14q0 -18 9 -29q16 -10 43 -10 q14 0 40.5 4t38.5 4l4 -6q143 0 140 0q92 4 129 31q16 12 32.5 45t28.5 43q4 18 21 55q2 2 8 2q25 0 37 -20q-12 -41 -8 -250v-86l2 -33v-12q-2 -16 -15.5 -41t-23.5 -25v-4q-10 6 -27 21q-4 2 -8 10q-8 31 -35 82q0 14 -6 35q-14 12 -64.5 28.5t-70.5 16.5q-8 0 -24.5 -5 t-24.5 -5q-25 0 -68 6q-49 6 -70 6q-18 0 -47.5 -12.5t-36.5 -28.5q-2 -23 -6 -66q-2 -6 -7 -22.5t-5 -24.5q0 -16 9 -60t7 -65q-2 -18 -2 -53q0 -33 5.5 -95.5t5.5 -92.5q0 -16 33.5 -50t52.5 -41q39 -8 81 -8q16 0 49 -4t48 -4q16 0 52 4t54 4q10 0 23 8q18 2 55 11 q98 37 162 125q20 41 39 80q31 59 57 59h4q0 -2 2 -2l6 -4q31 -21 31 -41q0 -16 -4 -29q-4 -35 -31 -96q-10 -45 -37 -131q-6 -16 -6 -19q-2 -14 -12 -41q-59 -33 -109 -34q-20 6 -61 12q-4 0 -12 -2h-11l-96 2q-82 2 -176 0q-29 0 -84 3t-80 3q-12 0 -39.5 -5t-42.5 -5 q-12 0 -35.5 3t-33.5 3q-29 0 -88.5 -5t-89.5 -5q-8 0 -29 4t-33 2q-33 0 -51 35l4 16q8 4 8 10q18 12 82 29q55 14 76 37q20 10 31 88q0 4 4 9t4 7q0 92 -6 168q0 10 -6 45q-4 29 -5 47q-47 14 -51 13h-180q-121 -2 -182 -2q-66 -47 -146 -246q-12 -20 -28 -62 q-8 -37 18 -77q35 -14 70 -27q47 -20 41 -49q-8 -35 -45 -35q-25 0 -76 2t-78 2q-14 0 -47 -4t-49 -4q-27 0 -74 2q-57 4 -77.5 4t-14.5 27zM602 621l8 -7q88 -4 269 -4q45 0 82 13q4 41 4 61q0 -4 -7 27q0 72 -6 102q12 37 13 166q0 20 -4 72q-4 45 -4.5 73.5t-2.5 61.5 q-123 -164 -239 -377q-59 -109 -113 -188zM1690 592z" />
<glyph unicode="&#xc7;" horiz-adv-x="1185" d="M51 598q0 16 2 78q2 49 2 80q0 78 49 205q33 86 86 161q12 10 33 33q14 25 53 64q35 31 99 79q59 43 227 93q137 39 322 39q20 0 48.5 5t59.5 5q23 -6 64 -21q92 -12 108 -43q12 -23 8 -67q-6 -55 -6 -52q20 -27 27 -49q6 -12 6 -24q0 -2 6 -20.5t2 -22.5q4 -45 4 -113 l-47 -2q-14 0 -16 24.5t-12 41.5q-25 29 -91 94q-78 78 -94 82q-49 47 -180 47q-18 0 -76 -10q-88 -16 -110 -33q-43 -31 -84 -62q-12 -4 -32 -17t-36 -36q-27 -35 -31 -39q-31 -25 -71 -80q-4 -23 -15 -65q-16 -31 -43 -94q-18 -57 -18 -160q0 -133 29 -221 q33 -94 114 -191q25 -31 82 -78q10 -14 39 -34q18 -14 56 -37t176 -27q68 -2 55 -4q90 -6 108 16q12 4 31 17q4 10 26.5 14t26.5 12q4 2 13 2q16 0 33.5 27t29.5 27q4 0 21.5 26.5t21.5 22.5q45 14 74 -88q-4 -33 -39 -60q-14 -25 -51 -57q-94 -109 -420 -109q4 -4 2 -6 q-6 -25 -12 -34q14 -20 18 -22.5t31 -2.5q53 0 97 -40t44 -93q0 -70 -65 -115q-57 -39 -134 -39h-55q-16 0 -63 8q-39 6 -50.5 15.5t-19.5 46.5v4q2 0 11.5 14.5t13.5 14.5q8 0 25.5 -4.5t27.5 -4.5q92 0 94 48v4l-2 4q-4 8 -5 9t-4 6t-11 17l2 5q0 31 -9 49q-2 4 -18 20 q-12 10 -8 21q-6 10 20 63l4 12q2 0 7 -2q-162 14 -263 93q-39 18 -110 69q-80 82 -125 170q-37 70 -74 139q-41 84 -39 152z" />
<glyph unicode="&#xc8;" horiz-adv-x="1167" d="M61 29l2 16q6 4 11 10q18 12 82 29q55 14 75 37q20 10 31 88q0 4 4 9t4 7q0 92 -6 168q-6 39 -16 117q0 31 6 89t6 87q0 -4 -6 27q0 72 -4 102q12 37 12 166q0 23 -5 71t-5 74q0 141 -55 166q-10 14 -62 41q-51 10 -51 29q0 63 98 63q104 0 311 -5t310 -5q39 0 117.5 4 t119.5 4q14 0 50 -16t36 -27v-73q-2 -49 -2 -78t-18 -47q-4 -16 -8 -25l-3 -2t-6.5 -6t-17.5 -8q-16 0 -94 88t-152 88h-123q-82 -2 -120 -2q-25 0 -41.5 -12.5t-28.5 -12.5v-6q-59 -20 -59 -74q0 -18 7 -54t7 -56v-82q-2 -55 -2 -84q0 -4 -2 -12.5t-2 -14.5t2 -18v-21v-14 q0 -18 11 -28.5t38 -10.5q14 0 41 4t39 4l6 -6q141 0 139 0q90 4 127 31q16 12 32.5 45t29.5 43q4 18 22 55q2 2 6 2q25 0 39 -20q-10 -33 -10 -250q0 -53 2 -86l2 -33v-10q0 -14 -14.5 -41t-26.5 -27v-4q-10 6 -24 21q-4 2 -9 10q-8 31 -34 82q0 14 -9 35q-14 12 -64 28.5 t-69 16.5q-8 0 -24.5 -5t-24.5 -5q-25 0 -71 6t-68 6q-18 0 -48 -12.5t-36 -28.5q0 -23 -4 -66q0 -8 -6 -23.5t-6 -23.5q0 -16 8 -60t6 -65q-2 -14 -2 -53q0 -33 5 -95.5t5 -92.5q0 -16 34 -50t54 -41q39 -8 80 -8q16 0 49 -4t49 -4q96 0 129 16q18 2 56 11q98 37 161 125 q20 41 39 80q31 59 56 59h4q0 -2 2 -2l8 -4q31 -18 31 -41q-4 -20 -4 -29q-4 -33 -31 -96q-10 -45 -37 -131q-6 -16 -6 -19q-2 -14 -12 -41q-59 -33 -109 -34q-20 6 -63 12q-4 0 -11 -2h-10l-96 2q-82 2 -176 0q-29 0 -82 2q-59 4 -84 4q-12 0 -39 -5t-41 -5q-12 0 -36 3 t-34 3q-29 0 -88 -5t-90 -5q-8 0 -28.5 4t-32.5 2q-33 0 -52 35zM276 1851q0 37 34 61.5t69 24.5q45 0 82 -39q61 -80 186 -233q18 -16 53 -51q21 -27 21 -37q0 -29 -33 -29q-25 0 -182 99q-147 92 -182 122q-47 43 -48 82z" />
<glyph unicode="&#xc9;" horiz-adv-x="1167" d="M61 29l2 16q6 4 11 10q18 12 82 29q55 14 75 37q20 10 31 88q0 4 4 9t4 7q0 92 -6 168q-6 39 -16 117q0 31 6 89t6 87q0 -4 -6 27q0 72 -4 102q12 37 12 166q0 23 -5 71t-5 74q0 141 -55 166q-10 14 -62 41q-51 10 -51 29q0 63 98 63q104 0 311 -5t310 -5q39 0 117.5 4 t119.5 4q14 0 50 -16t36 -27v-73q-2 -49 -2 -78t-18 -47q-4 -16 -8 -25l-3 -2t-6.5 -6t-17.5 -8q-16 0 -94 88t-152 88h-123q-82 -2 -120 -2q-25 0 -41.5 -12.5t-28.5 -12.5v-6q-59 -20 -59 -74q0 -18 7 -54t7 -56v-82q-2 -55 -2 -84q0 -4 -2 -12.5t-2 -14.5t2 -18v-21v-14 q0 -18 11 -28.5t38 -10.5q14 0 41 4t39 4l6 -6q141 0 139 0q90 4 127 31q16 12 32.5 45t29.5 43q4 18 22 55q2 2 6 2q25 0 39 -20q-10 -33 -10 -250q0 -53 2 -86l2 -33v-10q0 -14 -14.5 -41t-26.5 -27v-4q-10 6 -24 21q-4 2 -9 10q-8 31 -34 82q0 14 -9 35q-14 12 -64 28.5 t-69 16.5q-8 0 -24.5 -5t-24.5 -5q-25 0 -71 6t-68 6q-18 0 -48 -12.5t-36 -28.5q0 -23 -4 -66q0 -8 -6 -23.5t-6 -23.5q0 -16 8 -60t6 -65q-2 -14 -2 -53q0 -33 5 -95.5t5 -92.5q0 -16 34 -50t54 -41q39 -8 80 -8q16 0 49 -4t49 -4q96 0 129 16q18 2 56 11q98 37 161 125 q20 41 39 80q31 59 56 59h4q0 -2 2 -2l8 -4q31 -18 31 -41q-4 -20 -4 -29q-4 -33 -31 -96q-10 -45 -37 -131q-6 -16 -6 -19q-2 -14 -12 -41q-59 -33 -109 -34q-20 6 -63 12q-4 0 -11 -2h-10l-96 2q-82 2 -176 0q-29 0 -82 2q-59 4 -84 4q-12 0 -39 -5t-41 -5q-12 0 -36 3 t-34 3q-29 0 -88 -5t-90 -5q-8 0 -28.5 4t-32.5 2q-33 0 -52 35zM600 1577q0 6 18 37q18 16 54 51q59 80 186 233q37 39 80 39q37 0 70.5 -24.5t33.5 -59.5q2 -43 -45 -84q-35 -31 -182 -122q-158 -98 -182 -97q-33 2 -33 27z" />
<glyph unicode="&#xca;" horiz-adv-x="1173" d="M66 29l4 16q8 4 8 10q18 12 82 29q55 14 76 37q20 10 30 88q0 4 4 9t4 7q0 92 -6 168q-2 14 -8 58q-6 37 -6 59q0 31 6 89t6 87q0 -4 -6 27q0 72 -6 102q12 37 12 166q0 23 -5 71t-5 74q0 141 -53 166q-10 14 -64 41q-51 14 -49 29q0 63 98 63q104 0 311.5 -5t309.5 -5 q39 0 118 4t117 4q14 0 50 -16t36 -27v-73q-2 -49 -2 -77t-16 -48q-4 -16 -7 -21.5t-9 -10.5t-19 -9q-16 0 -94 88t-152 88h-122q-82 -2 -123 -2q-27 0 -42.5 -12.5t-25.5 -12.5l-2 -6q-59 -20 -57 -74q0 -18 6 -54t6 -56q-2 -94 -2 -166q0 -4 -2 -12.5t-2 -14.5 q0 -10 4 -39q0 -8 -2 -14q0 -18 8 -29q16 -10 43 -10q14 0 41 4t39 4l4 -6q143 0 139 0q92 4 129 31q16 12 33 45t29 43q4 18 20 55q2 2 9 2q25 0 36 -20q-12 -41 -8 -250v-86l2 -33v-10q0 -12 -14 -40t-25 -28v-4q-10 6 -26 21q-4 2 -8 10q-8 31 -35 82q0 14 -6 35 q-14 12 -64.5 28.5t-71.5 16.5q-8 0 -24.5 -5t-24.5 -5q-25 0 -67 6q-49 6 -70 6q-18 0 -48 -12.5t-36 -28.5q-2 -23 -6 -66q-2 -6 -7 -22.5t-5 -24.5q0 -16 9 -60t7 -65q-2 -18 -2 -53q0 -33 5 -95.5t5 -92.5q0 -16 34 -50t54 -41q39 -8 80 -8q16 0 49 -4t47 -4q16 0 52 4 t55 4q10 0 22 8q18 2 56 11q98 37 161 125q20 41 39 80q31 59 58 59h4q0 -2 2 -2l6 -4q31 -21 31 -41q0 -16 -4 -29q-4 -35 -31 -96q-10 -45 -37 -131q-6 -16 -6 -19q-2 -14 -12 -41q-59 -33 -109 -34q-20 6 -61 12q-4 0 -13 -2h-10l-96 2q-82 2 -176 0q-29 0 -84.5 3 t-79.5 3q-12 0 -40 -5t-42 -5q-12 0 -35.5 3t-34.5 3q-29 0 -88 -5t-90 -5q-8 0 -28.5 4t-32.5 2q-33 0 -51 35zM305 1556q0 20 122 176t148 177q16 12 46 16q27 0 56.5 -12t148 -174t118.5 -189q0 -23 -33 -22q-27 0 -154.5 99t-138.5 99q-6 0 -131 -102t-143 -102 q-12 0 -26.5 12t-12.5 22z" />
<glyph unicode="&#xcb;" horiz-adv-x="1189" d="M74 29l2 16q6 4 10 10q18 12 82 29q55 14 76 37q20 10 30 88q0 4 4.5 9t4.5 7q0 92 -7 168q-6 39 -16 117q0 31 6 89t6 87q0 -4 -6 27q0 72 -6 102q6 76 14 166q0 23 -5 71t-5 74q0 141 -55 166q-10 14 -62 41q-51 10 -51 29q0 63 99 63q104 0 311 -5t309 -5q39 0 118 4 t120 4q14 0 50 -16t36 -27v-73q-2 -49 -2 -78t-19 -47q-4 -16 -8 -25l-3 -2t-6 -6t-18 -8q-16 0 -94 88t-151 88h-123q-82 -2 -121 -2q-25 0 -41 -12.5t-29 -12.5v-6q-59 -20 -59 -74q0 -18 7 -54t7 -56v-82q-2 -55 -2 -84q0 -4 -2 -12.5t-2 -14.5t2 -18v-21v-14 q0 -18 11.5 -28.5t37.5 -10.5q14 0 41 4t39 4l6 -6q141 0 140 0q90 4 127 31q16 12 32.5 45t28.5 43q4 18 23 55q2 2 6 2q25 0 39 -20q-10 -33 -11 -250q0 -53 2 -86l2 -33v-10q0 -14 -14 -41t-27 -27v-4q-10 6 -24 21q-4 2 -8 10q-8 31 -35 82q0 14 -8 35 q-14 12 -64.5 28.5t-68.5 16.5q-8 0 -24.5 -5t-25.5 -5q-25 0 -70.5 6t-68.5 6q-18 0 -48 -12.5t-36 -28.5q0 -23 -4 -66q0 -8 -6 -23.5t-6 -23.5q0 -16 8 -60t6 -65q-2 -14 -2 -53q0 -33 5 -95.5t5 -92.5q0 -16 34 -50t54 -41q39 -8 80 -8q16 0 49 -4t50 -4q96 0 129 16 q18 2 55 11q98 37 162 125q20 41 39 80q31 59 55 59h4q0 -2 2 -2l8 -4q31 -18 31 -41q-4 -20 -4 -29q-4 -33 -31 -96q-10 -45 -39 -131q-4 -14 -4 -19q-2 -14 -12 -41q-59 -33 -109 -34q-20 6 -63 12q-4 0 -10 -2h-11l-96 2q-82 2 -176 0q-29 0 -82 2q-59 4 -84 4 q-12 0 -38.5 -5t-41.5 -5q-12 0 -35.5 3t-33.5 3q-29 0 -88.5 -5t-90.5 -5q-8 0 -28.5 4t-32.5 2q-33 0 -51 35zM328 1702q0 53 42 81.5t70 28.5q25 0 60 -28q47 -39 47 -82q0 -41 -53.5 -78t-63.5 -37q-53 0 -86 58q-16 29 -16 57zM707 1696q0 27 32 67q43 53 78 54 q23 0 35 -14.5t25 -30.5q2 -2 36 -25q17 -10 17 -41q0 -66 -41 -86q-61 -31 -72 -31q-45 0 -82 43q-29 43 -28 64z" />
<glyph unicode="&#xcc;" horiz-adv-x="663" d="M78 29q0 35 22 34q72 12 88 17q39 12 82 39q37 72 37 121q0 14 -7 41.5t-7 40.5q0 16 3 46.5t3 45.5q0 4 -2 8t-2 6q0 35 5 98.5t5 94.5q0 14 -2 42.5t-2 41.5q0 119 2 155q0 10 5 30.5t5 31.5q0 31 -6 39q-4 66 -4 194q0 143 -49 160q-27 10 -82 26q-23 4 -47 9 q-31 6 -31 28q-2 41 86 43q35 0 94 -4q70 -6 97 -6q37 0 105.5 2t98.5 2q14 0 43 7.5t44 7.5q16 0 30 -23q2 -8 6 -21q0 -20 -43 -36q-14 -8 -45 -23q-23 -2 -46 -5t-38.5 -29.5t-15.5 -51.5q0 -10 4 -35.5t4 -40.5q0 -47 -10 -141t-10 -141q0 -6 5 -20.5t5 -22.5 q0 -14 -4 -43t-4 -41q0 -14 5 -44t5 -46q0 -51 -5 -153.5t-5 -156.5q0 -53 12 -213q6 -12 66 -57q41 -8 79 -16q54 -15 54 -50l-2 -4v-4q-18 -25 -174 -24q-12 0 -37 6t-35 6q-59 0 -178 -4t-179 -4q-33 0 -28 37zM115 1855q0 37 33.5 62t68.5 25q45 0 82 -39 q61 -80 186 -234q18 -16 54 -51q20 -27 20 -37q0 -29 -35 -29q-25 0 -180 99q-150 92 -182 123q-47 43 -47 81z" />
<glyph unicode="&#xcd;" horiz-adv-x="663" d="M78 29q0 35 22 34q72 12 88 17q39 12 82 39q37 72 37 121q0 14 -7 41.5t-7 40.5q0 16 3 46.5t3 45.5q0 4 -2 8t-2 6q0 35 5 98.5t5 94.5q0 14 -2 42.5t-2 41.5q0 119 2 155q0 10 5 30.5t5 31.5q0 31 -6 39q-4 66 -4 194q0 143 -49 160q-27 10 -82 26q-23 4 -47 9 q-31 6 -31 28q-2 41 86 43q35 0 94 -4q70 -6 97 -6q37 0 105.5 2t98.5 2q14 0 43 7.5t44 7.5q16 0 30 -23q2 -8 6 -21q0 -20 -43 -36q-14 -8 -45 -23q-23 -2 -46 -5t-38.5 -29.5t-15.5 -51.5q0 -10 4 -35.5t4 -40.5q0 -47 -10 -141t-10 -141q0 -6 5 -20.5t5 -22.5 q0 -14 -4 -43t-4 -41q0 -14 5 -44t5 -46q0 -51 -5 -153.5t-5 -156.5q0 -53 12 -213q6 -12 66 -57q41 -8 79 -16q54 -15 54 -50l-2 -4v-4q-18 -25 -174 -24q-12 0 -37 6t-35 6q-59 0 -178 -4t-179 -4q-33 0 -28 37zM231 1581q0 10 21 37q18 16 51 51q59 80 186 234 q37 39 82 39q37 0 71 -24.5t34 -59.5q0 -43 -45 -84q-35 -31 -182 -123q-158 -98 -185 -97q-33 2 -33 27z" />
<glyph unicode="&#xce;" horiz-adv-x="671" d="M80 1561q0 20 122 175.5t150 176.5q18 12 45 16q27 0 56.5 -12t148.5 -174t119 -189q0 -23 -35 -22q-27 0 -155 99.5t-136 99.5t-132 -102.5t-142 -102.5q-12 0 -26.5 12t-14.5 23zM86 29q0 35 25 34q72 12 88 17q39 12 82 39q37 70 34 121q0 14 -6 40.5t-6 41.5 q0 16 3 46.5t3 45.5q0 4 -2 8t-2 6q0 31 4 95.5t4 97.5q0 12 -2 43v41q0 53 2 155q0 10 5.5 30.5t5.5 31.5q0 31 -7 39q-4 66 -4 194q0 143 -49 160q-27 10 -84 26q-23 4 -49.5 9.5t-26.5 27.5q0 41 84 43q35 0 99.5 -5t93.5 -5q37 0 105.5 2t99.5 2q14 0 42.5 7.5t41.5 7.5 q14 0 32 -23q4 -16 5 -21q0 -18 -41 -36q-14 -8 -45 -23q-23 -2 -46.5 -5t-37.5 -28q-18 -31 -19 -53q0 -12 4 -36.5t4 -39.5q0 -47 -10 -141t-10 -141q0 -6 5 -20.5t5 -22.5q0 -14 -4 -43t-4 -41q0 -14 5 -44t5 -46q0 -47 -4 -150.5t-4 -159.5q2 -96 10 -213q10 -18 68 -57 q41 -8 80 -16q53 -15 53 -50q-2 0 -2 -4v-4q-18 -25 -176 -24q-12 0 -37 6t-35 6q-59 0 -178 -4t-176 -4q-31 0 -31 37z" />
<glyph unicode="&#xcf;" horiz-adv-x="669" d="M84 29q0 35 25 34q72 12 88 17q39 12 82 39q37 70 34 121q0 14 -6 40.5t-6 41.5q0 16 3 46.5t3 45.5q0 4 -2 8t-2 6q0 31 4 95.5t4 97.5q0 12 -2 43v41q0 53 2 155q0 10 5.5 30.5t5.5 31.5q0 31 -7 39q-4 66 -4 194q0 143 -49 160q-27 10 -84 26q-23 4 -49.5 9.5 t-26.5 27.5q0 41 84 43q35 0 99.5 -5t93.5 -5q37 0 105.5 2t99.5 2q14 0 42.5 7.5t41.5 7.5q14 0 32 -23q4 -16 5 -21q0 -18 -41 -36q-14 -8 -46 -23q-23 -2 -46 -5t-37 -28q-18 -31 -19 -53q0 -12 4 -36.5t4 -39.5q0 -47 -10 -141t-10 -141q0 -6 5 -20.5t5 -22.5 q0 -14 -4 -43t-4 -41q0 -14 5 -44t5 -46q0 -47 -4 -150.5t-4 -159.5q2 -96 10 -213q10 -18 68 -57q41 -8 80 -16q53 -15 53 -50q-2 0 -2 -4v-4q-18 -25 -176 -24q-12 0 -37 6t-35 6q-59 0 -178 -4t-176 -4q-31 0 -31 37zM117 1706q0 55 43 83t69 28q25 0 60 -29 q47 -39 47 -82q0 -41 -53.5 -78t-63.5 -37q-53 0 -86 58q-16 29 -16 57zM496 1700q0 27 32 67q43 53 78 54q23 0 35 -14.5t25 -30.5q2 -2 36 -25q17 -10 17 -41q0 -66 -41 -86q-61 -31 -72 -31q-45 0 -82 43q-29 43 -28 64z" />
<glyph unicode="&#xd0;" horiz-adv-x="1431" d="M86 27q0 16 66 59q16 0 48.5 13.5t52 13.5t26.5 30q23 35 28 277q0 20 -6 63t-6 64q0 30 2 63h-12q-18 0 -49 -10t-46 -10q-49 -2 -49 43q0 8 38 70.5t46 66.5q12 6 43 0h37v29q0 12 2 34.5t2 32.5q0 8 -3 23.5t-3 21.5q2 20 2 62q0 18 -8 52t-8 50q0 14 4 43t4 43 q0 51 -18 92q-25 53 -68 54l-45 10q-27 6 -37 19.5t-23 31.5q0 45 66 45q35 0 104.5 -7t104.5 -7q47 0 143.5 6t145.5 6q86 0 260 -8q16 0 55 -4q80 -14 227 -109q35 -18 99 -63q39 -37 88 -129q29 -37 76 -117q2 -6 8 -70q6 -20 14 -63q18 -176 19 -166q0 -23 -29 -156 q-20 -96 -35.5 -132t-71.5 -118q-14 -27 -51 -75q-16 -18 -53 -31q-45 -16 -57 -25q-16 -18 -56 -49q-8 -4 -67 -22q-31 -14 -92 -39q-154 -39 -291 -39q-27 0 -88.5 3t-92.5 3q-20 0 -65 -6t-66 -6q-23 0 -67.5 6t-67.5 6q-25 0 -74 -5t-73 -5q-33 0 -33 35zM494 852 q0 -23 6 -70h12q18 0 55 -2t56 -2q25 0 53.5 15.5t44.5 15.5q29 0 29 -31q2 -66 -72 -139q-6 -12 -27 -33q-6 -2 -24 -2q-12 0 -38 5t-40 5q-23 0 -51 -2q0 -27 5 -83t5 -85q0 -20 -5 -59t-5 -57q0 -123 43 -176q47 -59 166 -60h28l13 2l-3 -2q158 0 244 49q14 12 43 35 q27 12 72 41q12 10 56 75.5t54 86.5q16 35 25 88q14 80 16 90q31 125 31 135q0 23 -6 47.5t-6 28.5q-6 117 -49 240q-6 16 -25 36q-25 27 -29 33q-66 98 -88 120t-125 79q-16 8 -113 22.5t-126 14.5q-195 0 -209 -88q2 12 2 -84q0 -25 -6 -68q-6 -51 -6 -69v-127 q0 -4 -3 -12.5t-3 -12.5z" />
<glyph unicode="&#xd1;" horiz-adv-x="1529" d="M70 1364q2 43 53 49q-16 -2 84 -2q25 0 75 7t76 7q18 0 52 -30q39 -37 53 -45q43 -61 133 -187q35 -31 82 -73q31 -41 96 -117q57 -57 164 -178v-2q33 -37 92 -115q10 -16 33 -49q68 -63 188 -203q18 -25 21 -25q4 0 11 13l7 12q18 6 21 149q-2 -113 -2 179q0 4 2 12 t2 14q0 20 -3 59.5t-3 57.5q0 37 3 110.5t3 110.5q0 135 -53 176q-14 4 -41 13l-105 49q-18 12 -14 28q0 14 35 35q8 0 23.5 2t23.5 2q20 0 71 -2q45 -2 72 -2q31 0 119 6q76 2 119 2q16 0 26 -26q6 -7 6 -17q0 -16 -16 -24q-8 -14 -42 -20.5t-44 -18.5q-66 -23 -66 -127 q0 -29 -5 -81t-5 -73q0 -12 2 -38.5t2 -40.5q0 -285 -2 -322q-6 -106 -6 -113.5t-3 -22t-3 -20.5q0 -37 4 -112.5t4 -114.5q0 -20 -5 -64.5t-5 -66.5q0 -10 2 -33v-33v-26q-2 -16 -2 -23l-2 -8q-29 -8 -45 -6q-37 18 -90 94q-61 86 -86 107q-45 86 -95 114q-8 12 -24 33 t-19 14q-10 14 -34 39q-12 31 -131 150q-139 139 -156.5 160.5t-48.5 62.5q-66 66 -180 209q-27 31 -70 88q-25 4 -26 -1t-6 -21.5t-5 -22.5q0 -10 4 -53q2 -35 2 -56q0 -102 -12 -274q-2 -18 2 -51q2 -41 2 -53l-4 -7v-36q-2 -25 -2 -39q0 -29 3 -86.5t3 -85.5 q0 -31 -4 -67t-4 -44q0 -37 43 -74q23 -18 39 -22q29 -8 59 -15q14 -4 29 -18q6 -31 -45 -43q-61 10 -111 10q-20 0 -63 -6t-66 -6q-127 0 -137 12q-16 4 -33.5 8t-17.5 19q0 25 8 31l6 6q39 18 113 26q20 20 20 37q2 25 6 35q33 76 41 119q6 31 6 123q0 31 5 110 q4 70 4 109q0 16 -3.5 67.5t-3.5 77.5q0 16 5.5 49t5.5 47q2 57 0 207q0 119 -37 158q-61 41 -125 84q-20 8 -55 43zM575 1632q0 76 46.5 138.5t119.5 62.5q49 0 133 -45h7q53 -33 139 -68q59 -2 82 47q-2 -2 -2 19q0 49 30 49q39 0 41 -33q3 -4 3 -14q2 -72 -47.5 -130.5 t-120.5 -58.5q-45 0 -160 55.5t-129 55.5q-8 0 -23.5 -5t-23.5 -5t-17 -31l-12 -37q-8 -33 -29 -33h-2q-35 0 -35 33z" />
<glyph unicode="&#xd2;" horiz-adv-x="1388" d="M53 698q-2 162 60 275q2 4 8 8t8 6q16 37 43 80q84 133 145 195q84 82 209 129q143 53 314 53q66 0 185.5 -40t176.5 -79q27 -18 91.5 -84.5t86.5 -95.5q41 -55 95 -227v-5q0 -31 11 -93t11 -93q0 -18 -4 -55t-4 -58q0 -63 -23 -143q-14 -23 -34 -70q-6 -18 -21 -53 q-25 -31 -70 -92q-55 -80 -98 -117q-16 -14 -92 -63q-31 -25 -74 -53q-18 -6 -55 -21q-117 -41 -268 -41q-297 0 -523 238q-2 2 -63 102q-68 113 -78 145q-35 127 -37 252zM289 766q0 -33 12 -158t18 -147q23 -80 95.5 -172t101.5 -117q49 -43 138 -69.5t134 -26.5 q43 0 116 18.5t110 38.5q18 10 69 62q25 20 70 69q16 25 31 70q20 61 28.5 74.5t26.5 46.5q23 63 23 92q2 6 -2.5 14t-4.5 12q-2 51 0 138q2 104 2 135q0 47 -8 76q-29 100 -116 217q-94 127 -178.5 162.5t-174.5 35.5q-229 2 -366 -174q-125 -162 -125 -397zM471 1853 q0 37 34 61.5t68 24.5q45 0 82 -38q61 -80 187 -234q18 -16 53 -51q20 -27 20 -37q0 -29 -32 -29q-25 0 -183 99q-147 92 -182 123q-47 43 -47 81z" />
<glyph unicode="&#xd3;" horiz-adv-x="1382" d="M53 698q-2 162 60 275q2 4 8 8t8 6q16 37 43 80q84 133 145 195q84 82 209 129q143 53 314 53q66 0 185.5 -40t176.5 -79q27 -18 91.5 -84.5t86.5 -95.5q41 -55 95 -227v-5q0 -31 11 -93t11 -93q0 -18 -4 -55t-4 -58q0 -63 -23 -143q-14 -23 -34 -70q-6 -18 -21 -53 q-25 -31 -70 -92q-55 -80 -98 -117q-16 -14 -92 -63q-31 -25 -74 -53q-18 -6 -55 -21q-117 -41 -268 -41q-297 0 -523 238q-2 2 -63 102q-68 113 -78 145q-35 127 -37 252zM289 766q0 -33 12 -158t18 -147q23 -80 95.5 -172t101.5 -117q49 -43 138 -69.5t134 -26.5 q43 0 116 18.5t110 38.5q18 10 69 62q25 20 70 69q16 25 31 70q20 61 28.5 74.5t26.5 46.5q23 63 23 92q2 6 -2.5 14t-4.5 12q-2 51 0 138q2 104 2 135q0 47 -8 76q-29 100 -116 217q-94 127 -178.5 162.5t-174.5 35.5q-229 2 -366 -174q-125 -162 -125 -397zM590 1579 q0 6 18 37q18 16 54 51q59 80 186 234q37 39 80 38q37 0 70.5 -24.5t33.5 -59.5q0 -43 -45 -83q-33 -31 -182 -123q-158 -98 -182 -97q-33 2 -33 27z" />
<glyph unicode="&#xd4;" horiz-adv-x="1388" d="M57 698q-2 162 60 275q2 4 8 8t8 6q16 37 43 80q84 133 146 195q84 82 208 129q143 53 314 53q66 0 186.5 -40t177.5 -79q27 -18 91.5 -84.5t86.5 -95.5q45 -59 93 -227v-5q0 -31 11 -93t11 -93q0 -16 -3 -54t-3 -59q2 -59 -22 -143q-14 -23 -37 -70q-6 -18 -21 -53 q-25 -31 -69 -92q-55 -80 -99 -117q-16 -14 -92 -63q-31 -25 -74 -53q-18 -6 -55 -21q-117 -41 -266 -41q-295 0 -524 238q-2 2 -64 102q-68 113 -78 145q-35 127 -37 252zM293 766q0 -33 12 -158t19 -147q23 -78 97.5 -172t100.5 -117q49 -45 137.5 -70.5t133.5 -25.5 q43 0 115.5 18.5t109.5 38.5q18 10 69 62q25 20 70 69q16 25 31 70q20 61 28.5 74.5t26.5 46.5q23 63 23 92q2 6 -2 14t-4 12q-2 51 0 138q2 104 2 135q0 53 -7 76q-29 100 -116 217q-94 127 -179.5 162.5t-175.5 35.5q-229 2 -366 -174q-125 -162 -125 -397zM455 1559 q0 20 121.5 175.5t150.5 176.5q18 12 45 16q27 0 56.5 -12t148.5 -174t119 -189q0 -23 -35 -22q-27 0 -155 99.5t-136 99.5t-132 -102.5t-142 -102.5q-12 0 -26.5 12t-14.5 23z" />
<glyph unicode="&#xd5;" horiz-adv-x="1396" d="M70 700q0 160 57 273l16 16q14 35 43 80q18 35 62 98q33 43 104 117q137 115 312 148q66 12 213 14q51 0 118 -23q57 -23 115 -45q31 -10 92 -41q68 -43 148 -135t104 -162q27 -78 45 -200q14 -103 12 -111q-6 -82 -30 -254q-23 -49 -56 -127q-16 -18 -41 -49 q-70 -121 -217 -221q-33 -25 -75 -53q-18 -6 -58 -21q-123 -41 -264 -41q-156 0 -326 88q-20 8 -59 31q-88 68 -139 121q-37 39 -103 170q-16 25 -41 78q-33 117 -32 249zM303 768q0 -20 3 -66.5t3 -70.5q0 16 10 -53q2 -51 21 -144q27 -80 101.5 -165t99.5 -105 q49 -39 131 -62.5t131 -23.5q41 0 116.5 19.5t106.5 37.5q63 41 141 131q14 16 29 58q20 57 23 61q59 131 59 168q0 4 -4 15.5t-4 17.5v176q0 18 2 52t2 50q0 39 -16.5 75t-32.5 71q-33 86 -103 172q-80 96 -153 125q-84 33 -176 32q-98 0 -154 -20q-41 -14 -129 -76 q-150 -102 -188 -340q-18 -113 -19 -135zM457 1632q0 76 46 138.5t120 62.5q49 0 133 -45h6q53 -33 139 -68q57 -2 84 47q2 2 -4 19q0 49 31 49q39 0 41 -33q2 -4 2 -14q2 -72 -47.5 -130.5t-120.5 -58.5q-45 0 -160 55.5t-129 55.5q-8 0 -23.5 -5t-23.5 -5t-16 -31 q-12 -37 -13 -37q-8 -33 -28 -33h-2q-35 0 -35 33z" />
<glyph unicode="&#xd6;" horiz-adv-x="1413" d="M68 700q-2 162 59 275q2 4 8 8t8 6q16 37 43 80q84 133 146 195q84 82 209 129q143 53 313 53q66 0 185.5 -40t177.5 -79q27 -18 91 -84.5t87 -95.5q41 -55 94 -227v-5q0 -31 11 -93t11 -93q0 -18 -4 -55t-4 -58q0 -63 -22 -143q-14 -23 -35 -70q-6 -18 -21 -53 q-25 -31 -69 -92q-55 -80 -99 -117q-16 -14 -92 -63q-31 -25 -73 -53q-18 -6 -56 -21q-117 -41 -268 -41q-297 0 -522 238q-2 2 -64 102q-68 113 -78 146q-35 127 -36 251zM303 768q0 -33 12.5 -158t18.5 -147q23 -80 95.5 -172t100.5 -117q49 -43 138.5 -69.5t134.5 -26.5 q43 0 115.5 18.5t109.5 38.5q18 10 70 62q25 20 69 69q16 25 31 70q20 61 28.5 74.5t26.5 46.5q23 63 23 92q2 6 -2 14t-4 12q-2 51 0 138q2 104 2 135q0 47 -8 76q-29 100 -117 217q-94 127 -178 162.5t-174 35.5q-229 2 -367 -174q-125 -162 -125 -397zM504 1704 q0 53 42 82t70 29q25 0 60 -29q47 -39 47 -82q0 -41 -53.5 -78t-63.5 -37q-53 0 -86 58q-16 29 -16 57zM883 1698q0 27 32 67q43 53 78 54q23 0 35 -14.5t25 -30.5q2 -2 37 -25q16 -10 16 -41q0 -66 -41 -86q-61 -31 -72 -31q-45 0 -82 43q-29 43 -28 64z" />
<glyph unicode="&#xd7;" horiz-adv-x="1024" d="M133 102l301 306l-301 301l76 79l303 -303l305 308l76 -78l-303 -307l303 -306l-76 -79l-305 307l-303 -307z" />
<glyph unicode="&#xd8;" horiz-adv-x="1439" d="M74 700q-2 162 59 275q2 4 8 8l9 6q16 37 43 80q84 133 145 195q84 82 209 129q143 53 313 53q86 0 248 -62h2q23 33 61 103q51 39 50 39q18 -14 41 -37q-27 -45 -80 -137q20 -10 43.5 -26.5t89 -83t86.5 -95.5q41 -55 94 -227v-5q0 -31 11.5 -93t11.5 -93 q0 -18 -4.5 -55t-4.5 -58q0 -63 -22 -143q-14 -23 -35 -70q-6 -18 -20 -53q-25 -31 -70 -92q-55 -80 -98 -117q-16 -14 -93 -63q-31 -25 -73 -53q-18 -6 -56 -21q-117 -41 -266 -41q-174 0 -340 94l-67 -123l-50 -47l-45 35q18 41 103 172q-70 47 -125 107q-2 2 -64 102 q-68 113 -77 146q-35 127 -37 251zM307 768q0 -31 13.5 -157t19.5 -148q27 -90 96 -176l27 -33h2q12 20 37 59q39 72 119 211q33 55 96 166q45 72 131 219q16 35 51 103q16 29 39 65q34 58 102 187q-33 27 -67 41q-86 35 -172 34q-229 2 -367 -174q-125 -162 -127 -397z M516 193q57 -57 158 -89q88 -27 135 -26q43 0 115.5 18.5t109.5 38.5q18 10 70 62q25 20 70 69q16 25 30 70q20 61 28.5 74.5t27.5 46.5q22 63 22 92q0 4 -4 13t-2 13v273q0 27 -6 76q-41 145 -172 284q-68 -123 -207 -366q-59 -104 -182 -307q-20 -37 -64 -113 q-23 -37 -65 -111q-16 -35 -54 -102z" />
<glyph unicode="&#xd9;" horiz-adv-x="1382" d="M51 1376q0 27 49 43q41 0 121 -4q10 0 32.5 -4t33.5 -4q27 0 80 4t82 4q59 -2 53 -2q16 0 43.5 2t40.5 2q53 0 55 -20l-6 -25q-20 -33 -111 -49q-72 -14 -71 -88q0 -12 3 -33.5t3 -32.5q0 -14 -5 -42.5t-5 -43.5v-63q-2 -43 -3 -64q0 -57 5.5 -171.5t5.5 -172.5 q0 -16 -5.5 -51t-5.5 -53q0 -68 5 -94q6 -8 14 -27q6 -45 27 -127q80 -188 327 -188q47 0 160 45q55 23 116.5 130t61.5 171q0 37 7 110.5t7 110.5q0 14 4.5 44t4.5 44q0 55 -9 156q-8 109 -8 155q0 27 3 76t3 72q0 27 -26.5 69.5t-50.5 65.5q-4 2 -11.5 6t-11.5 4h-2h-31 q-23 0 -51.5 16.5t-26.5 36.5q0 8 5 17h8q4 8 14 16l70 2q63 2 162 0q133 -2 163 -2q76 1 76 -26t-63 -48q-72 -25 -84 -40q-18 -27 -19 -93q0 -18 -4 -54t-4 -54q0 -12 2 -39t2 -41q0 -23 -4 -70t-4 -71q0 -31 4 -89.5t4 -86.5q2 -152 -12 -275q-12 -49 -35 -133 q-16 -63 -16 -66q-10 -29 -37 -61q-16 -20 -84 -82q-14 -16 -45 -47q-92 -76 -348 -76q-190 0 -320 117q-27 25 -72 76q-6 16 -14 45q-23 70 -44 140.5t-21 141.5q0 35 8 103.5t8 99.5q0 25 -7 73t-7 73q2 102 2 159q0 16 -3 46t-3 44q0 16 4 50t4 51q2 117 -62 139 q-39 8 -76 14q-55 14 -55 39zM504 1853q0 37 33.5 61.5t68.5 24.5q45 0 82 -38q61 -80 184 -234q18 -16 54 -51q20 -27 20 -37q0 -29 -33 -29q-25 0 -182 99q-147 92 -182 123q-47 41 -45 81z" />
<glyph unicode="&#xda;" horiz-adv-x="1382" d="M51 1376q0 27 49 43q41 0 121 -4q10 0 32.5 -4t33.5 -4q27 0 80 4t82 4q59 -2 53 -2q16 0 43.5 2t40.5 2q53 0 55 -20l-6 -25q-20 -33 -111 -49q-72 -14 -71 -88q0 -12 3 -33.5t3 -32.5q0 -14 -5 -42.5t-5 -43.5v-63q-2 -43 -3 -64q0 -57 5.5 -171.5t5.5 -172.5 q0 -16 -5.5 -51t-5.5 -53q0 -68 5 -94q6 -8 14 -27q6 -45 27 -127q80 -188 327 -188q47 0 160 45q55 23 116.5 130t61.5 171q0 37 7 110.5t7 110.5q0 14 4.5 44t4.5 44q0 55 -9 156q-8 109 -8 155q0 27 3 76t3 72q0 27 -26.5 69.5t-50.5 65.5q-4 2 -11.5 6t-11.5 4h-2h-31 q-23 0 -51.5 16.5t-26.5 36.5q0 8 5 17h8q4 8 14 16l70 2q63 2 162 0q133 -2 163 -2q76 1 76 -26t-63 -48q-72 -25 -84 -40q-18 -27 -19 -93q0 -18 -4 -54t-4 -54q0 -12 2 -39t2 -41q0 -23 -4 -70t-4 -71q0 -31 4 -89.5t4 -86.5q2 -152 -12 -275q-12 -49 -35 -133 q-16 -63 -16 -66q-10 -29 -37 -61q-16 -20 -84 -82q-14 -16 -45 -47q-92 -76 -348 -76q-190 0 -320 117q-27 25 -72 76q-6 16 -14 45q-23 70 -44 140.5t-21 141.5q0 35 8 103.5t8 99.5q0 25 -7 73t-7 73q2 102 2 159q0 16 -3 46t-3 44q0 16 4 50t4 51q2 117 -62 139 q-39 8 -76 14q-55 14 -55 39zM621 1579q0 6 18 37q18 16 53 51q59 80 187 234q37 39 79 38q37 0 71 -24.5t34 -59.5q2 -43 -45 -83q-35 -31 -182 -123q-158 -98 -183 -97q-33 2 -32 27z" />
<glyph unicode="&#xdb;" horiz-adv-x="1388" d="M57 1376q0 25 47 43q41 0 121 -4q10 0 33 -4t33 -4q25 0 80 4t84 4q59 -2 51 -2q16 0 44 2t40 2q53 0 55 -20l-6 -25q-20 -33 -111 -49q-70 -14 -69 -88q0 -8 4 -33q2 -20 0 -33q0 -14 -5 -43.5t-5 -42.5v-127q0 -41 6 -172q2 -106 2 -172q0 -16 -5 -51t-5 -53 q0 -68 4 -94q6 -8 14 -27q6 -45 27 -127q80 -188 327 -188q47 0 160 45q55 23 116.5 130t61.5 171q0 37 7.5 110.5t7.5 110.5q0 14 4 44t4 44q0 53 -7.5 156.5t-7.5 154.5q0 23 2.5 72t2.5 76q-2 66 -76 135q-4 2 -11.5 6t-11.5 4h-2h-31q-23 0 -51 16.5t-28 36.5q0 10 6 17 h6q4 8 16 16l68 2q63 2 162 0q133 -2 163 -2q76 1 76 -26t-63 -48q-72 -25 -84 -40q-18 -27 -19 -93q0 -18 -4 -54t-4 -54q0 -14 3 -41t3 -39q0 -25 -4 -72t-4 -69q0 -29 3 -87.5t3 -88.5q0 -170 -12 -275q-12 -49 -35 -133q-8 -33 -17 -63.5t-34 -63.5q-14 -18 -84 -82 q-14 -16 -45 -47q-92 -76 -350 -76q-190 0 -320 117q-27 25 -71 76q-6 16 -15 45q-23 70 -44 140.5t-21 141.5q0 35 8 103.5t8 99.5q0 25 -7 73t-7 73q2 53 4 159q0 16 -3 47t-3 43q0 16 3 49t3 52q0 117 -60 139q-39 8 -75 14q-55 14 -56 39zM467 1559q0 20 122 175.5 t148 176.5q16 12 45 16q27 0 56.5 -12t148.5 -174t119 -189q0 -23 -33 -22q-27 0 -154.5 99.5t-138.5 99.5q-6 0 -131 -102.5t-143 -102.5q-12 0 -26.5 12t-12.5 23z" />
<glyph unicode="&#xdc;" horiz-adv-x="1396" d="M66 1376q0 25 47 43q41 0 123 -4q10 0 32.5 -4t32.5 -4q27 0 80 4t82 4q59 -2 51 -2q16 0 45 2t41 2q53 0 53 -20q0 -2 -2 -11.5t-2 -13.5q-20 -33 -110 -49q-72 -14 -72 -88q0 -12 3 -33.5t3 -32.5q0 -14 -5 -42.5t-5 -43.5v-63q-2 -43 -2 -64q0 -57 5 -171.5t5 -172.5 q0 -18 -6 -53t-6 -51q-2 -57 6 -94q6 -8 14 -27q6 -45 27 -127q80 -188 328 -188q47 0 159 45q55 23 115.5 130t60.5 171q0 39 8.5 113.5t8.5 107.5q0 12 3 42t3 46q0 49 -7 153.5t-7 157.5q0 25 3 74t3 74q0 27 -27 69.5t-51 65.5q-4 2 -11.5 6t-11.5 4h-2h-30 q-23 0 -51.5 16.5t-26.5 36.5q0 8 4 17h8q4 8 14 16l70 2q63 2 162 0q133 -2 162 -2q75 1 75 -26t-61 -48q-72 -25 -84 -40q-18 -27 -18 -93q0 -18 -4.5 -54t-4.5 -54q0 -12 2 -39t2 -41q0 -23 -4 -70t-4 -71q0 -29 3 -87.5t3 -88.5q0 -172 -10 -275q-12 -49 -35 -133 q-16 -63 -16 -66q-10 -29 -37 -61q-16 -20 -84 -82q-14 -16 -45 -47q-92 -76 -350 -76q-190 0 -318 117q-27 25 -71 76q-6 16 -15 45q-23 70 -44 140.5t-21 141.5q0 35 8 103.5t8 99.5q0 25 -7 73t-7 73q2 102 2 159q0 16 -3 46t-3 44q0 16 3 49t3 52q0 117 -59 139 q-39 8 -76 14q-55 14 -55 39zM516 1704q0 53 43 82t70 29q25 0 59 -29q47 -39 47 -82q0 -41 -53 -78t-64 -37q-53 0 -86 58q-16 29 -16 57zM895 1698q0 27 33 67q43 53 78 54q23 0 35 -14.5t24 -30.5q2 -2 37 -25q16 -10 16 -41q0 -66 -41 -86q-61 -31 -71 -31q-45 0 -82 43 q-29 43 -29 64z" />
<glyph unicode="&#xdd;" horiz-adv-x="1204" d="M43 1389q2 33 63 32q23 0 66 2t64 2q29 0 84 -3t81 -3q14 0 41 3t39 3q49 0 54 -39q-6 0 2 -8q-27 -37 -74 -41q-10 0 -17 -8l-14 2q-4 -16 -14 -39q4 -12 17.5 -33.5t17.5 -33.5l10 -13q25 -47 67 -145q8 -20 26.5 -34.5t23.5 -22.5q12 -27 38 -76q29 -41 82 -135 q18 -39 29 -39v-2q0 -8 10 -29q4 6 27 33q45 37 90 135l141 246q20 33 43 65q25 45 21 72q0 10 -7 23.5t-10 17.5q-45 12 -122 53l-2 10q0 10 8 35l10 11q10 6 33 6q18 0 55 -6.5t53 -6.5q31 0 89.5 7.5t86.5 7.5q63 0 82 -13l2 -30q-6 -27 -34.5 -40.5t-53.5 -25.5l-2 -6 q-39 -8 -94 -121q-29 -41 -80 -121q-31 -57 -92 -172q-31 -47 -86 -139l-76 -137q-29 -53 -28 -215q0 -18 7 -54t7 -57q0 -14 -3 -45t-3 -47q0 -78 61 -115q61 -29 125 -57q4 -6 8 -18q-8 -8 -11 -14.5t-19.5 -9.5t-48 -5t-46.5 -2q-29 0 -82 6t-77 6q-47 0 -142.5 -5 t-142.5 -5q-25 0 -29 18q-4 8 -2 13q0 37 79 51t89 67q2 8 8.5 26.5t6.5 36t6 48.5q10 51 6 197q-2 113 -21 131l-2 -2q-6 8 -8 22q-25 78 -84 174q-47 78 -100 185q-16 27 -45 81q-8 23 -41 64t-43 59q-25 51 -90 142q-25 16 -66 49q-16 0 -37 12l-6 19l-2 2v-2h-2z M682 1581q0 10 20 37q18 16 52 51q59 80 186 234q37 39 82 39q37 0 70.5 -24.5t33.5 -59.5q0 -43 -45 -84q-35 -31 -182 -123q-158 -98 -184 -97q-33 2 -33 27z" />
<glyph unicode="&#xde;" horiz-adv-x="1105" d="M39 29q0 35 24 34q72 12 89 17q39 12 81 39q37 70 35 121q0 14 -6 40.5t-6 41.5q0 16 3 46.5t3 45.5q0 4 -2 8t-2 6q0 35 5 98.5t5 94.5q0 14 -2 42.5t-2 41.5q0 119 2 155q0 10 5 30.5t5 31.5q0 31 -6 39q-4 66 -4 194q0 143 -49 160q-27 10 -84 26q-23 4 -49.5 9.5 t-26.5 27.5q0 41 84 43q35 0 99.5 -5t93.5 -5q37 0 105.5 2t99.5 2q14 0 42.5 7.5t41.5 7.5q14 0 32 -23q4 -16 4 -21q0 -18 -41 -36q-14 -8 -45 -23q-23 -2 -46 -5t-38 -28q-18 -31 -18 -53q0 -12 4 -36.5t4 -39.5v-10h27q231 6 336 -20q66 -16 145.5 -73.5t116.5 -115.5 q10 -23 31 -67q14 -23 34 -74q2 -41 9 -121q0 -4 3 -12t3 -13q0 -31 -18.5 -90t-37 -80.5t-53.5 -60.5q-37 -57 -107.5 -98t-140.5 -49q-18 -2 -73 -15q-45 -12 -74 -12q-18 0 -105 10q-76 8 -98 4l-4 2h-6q0 -43 8 -127q6 -12 66 -57q41 -8 80 -16q53 -15 53 -50l-2 -4v-4 q-18 -25 -174 -24q-12 0 -37 6t-37 6q-59 0 -178 -4t-176 -4q-31 0 -31 37zM463 377q242 -10 217 -10q8 0 72 28q98 43 145 121q10 25 33 72q18 35 18 41q0 20 -6 62t-6 63q0 8 2 24.5t2 22.5q0 70 -66 127q-49 84 -139 106q-14 4 -178 21h-4q-33 4 -82 0q-2 -41 -8 -121 q2 -10 2 -19q0 -6 -2 -41q8 -39 8 -34q0 -14 -4 -43q2 -14 2 -27q0 -29 -2 -65q4 -25 4 -39q0 -16 -6 -177q18 -47 18 -49q0 -8 -12 -24.5t-8 -36.5v-2zM463 379q-2 10 0 18v-18z" />
<glyph unicode="&#xdf;" horiz-adv-x="1044" d="M86 33q-6 4 6 15t19 11q0 6 31.5 32t45 32t0.5 151q0 37 3.5 108t3.5 105q0 16 3 70.5t3 71.5q0 39 -4 47q-6 16 -37 31l-10 -2l-17 2q-14 2 -35 26q-2 8 0 10q0 25 37 50q8 16 45 36h2q20 6 21 142q0 -18 18 88q25 139 92 246q82 127 201 155q37 12 75 23.5t83 11.5 q111 0 206 -88t95 -199q0 -84 -62 -182q-23 -35 -118 -152q-63 -80 -64 -114q0 -61 125 -144q27 -18 55 -51q47 -41 97.5 -85t70.5 -124q4 -16 4 -118q0 -2 -12 -45q-47 -162 -178 -197q-29 -10 -55 -19q-33 -10 -60 -8q-82 6 -139 39q-72 41 -72 113q2 92 70 92 q39 0 43 -29l8 -6q8 -31 8 -65q59 -43 92 -43q82 2 97 133q0 4 4 9t4 9q0 88 -100 193q-47 49 -111 127q-4 6 -57 100q-8 14 -9 61q14 82 40 135.5t61 86.5q6 10 14 24q20 31 53 92q10 33 11 54q0 72 -19 108q-4 27 -41 82q-4 10 -14 27q-25 16 -68 39q-4 4 -20.5 7t-40.5 3 q-78 0 -125 -62q-94 -121 -94 -227q0 -29 2 -108v-111q0 -37 -4 -122t-4 -130q0 -23 7 -137.5t7 -132.5q4 -70 10 -137q6 -113 0 -146q-2 -23 -2 -43q-8 -10 -88 -10q-115 -2 -182 6l-13 14q-4 0 -16 9q-4 4 -2 10z" />
<glyph unicode="&#xe0;" horiz-adv-x="854" d="M72 205q-2 66 67 112q23 16 72 41q186 66 270 68q39 0 70 12q14 72 14 99q0 57 -12 81.5t-59 49.5q-53 29 -111 28q-25 0 -59.5 -24.5t-42 -47t-37.5 -77.5q-12 -14 -86 -37q-12 6 -25 20q-27 16 -27 64q0 27 31 59q23 25 47 49q14 6 43 21q90 53 117 63q49 18 135 19 q88 0 157 -45t95 -127q16 -47 12 -76q4 -16 5 -51q0 -33 -9.5 -97.5t-9.5 -93.5q-2 -147 35 -204q10 -6 35 -11l8 2q10 8 33 19q14 2 39 8q12 -2 22 -10l10 -25q-2 -2 -4 -10q-33 -29 -94 -70q-14 -4 -44 -19t-42 -13q-88 0 -111 28q-8 10 -38 72h-3q-2 -2 -4 -2 q-18 -6 -65 -47q-80 -55 -180 -60q-6 0 -20.5 -3t-22.5 -3q10 0 -47 8q-145 39 -150 144l-8 12q-2 25 -6 74zM90 1239q0 37 34 61.5t69 24.5q45 0 81 -39q61 -80 185 -233q18 -16 53 -52q20 -26 20 -36q4 -29 -32 -29q-25 0 -181 98q-150 92 -182 123q-47 43 -47 82z M262 215q0 -86 27 -92q35 -27 92 -29q43 -2 92 21q61 29 77.5 53t16.5 90q0 31 -4 37q4 16 -2 29q-4 2 -7 17t-9 15q-10 0 -111 -28q-20 -4 -58 -10.5t-73 -36.5q-41 -33 -41 -66z" />
<glyph unicode="&#xe1;" horiz-adv-x="856" d="M70 205q-2 66 67 112q23 16 72 41q186 66 270 68q39 0 70 12q14 72 14 99q0 57 -12 81.5t-59 49.5q-53 29 -111 28q-25 0 -59.5 -24.5t-42 -47t-37.5 -77.5q-12 -14 -86 -37q-12 6 -25 20q-27 16 -27 64q0 27 31 59q23 25 47 49q14 6 43 21q90 53 117 63q49 18 135 19 q88 0 156.5 -45t95.5 -127q16 -47 12 -76q4 -16 4 -51q0 -33 -9 -97.5t-9 -93.5q-2 -147 35 -204q10 -6 35 -11l8 2q10 8 33 19q14 2 39 8q12 -2 22 -10l10 -25q-2 -2 -4 -10q-33 -29 -94 -70q-14 -4 -44 -19t-42 -13q-88 0 -111 28q-8 10 -39 72h-2q-2 -2 -4 -2 q-18 -6 -65 -47q-80 -55 -180 -60q-6 0 -20.5 -3t-22.5 -3q10 0 -48 8q-145 39 -149 144l-8 12q-2 25 -6 74zM260 215q0 -86 27 -92q35 -27 92 -29q43 -2 92 21q61 29 77.5 53t16.5 90q0 31 -4 37q4 16 -2 29q-4 2 -7 17t-9 15q-10 0 -111 -28q-20 -4 -58 -10.5t-73 -36.5 q-41 -33 -41 -66zM350 965q0 6 19 36q18 16 53 52q59 80 186 233q37 39 82 39q37 0 71 -24.5t34 -59.5q0 -41 -47 -84q-35 -31 -183 -123q-158 -98 -182 -96q-33 2 -33 27z" />
<glyph unicode="&#xe2;" horiz-adv-x="878" d="M80 205q0 68 65 112q23 16 74 41q172 66 270 68q39 0 68 12q14 72 14 99q0 57 -12 81.5t-59 49.5q-53 29 -111 28q-25 0 -59.5 -24.5t-40.5 -47t-39 -77.5q-10 -12 -84 -37q-12 6 -25 20q-27 16 -26 64q0 27 28 59q25 25 47 49q14 6 43 21q90 53 117 63q49 18 135 19 q195 0 254 -172q16 -47 11 -76q4 -16 4 -51q0 -33 -8.5 -96.5t-8.5 -94.5q0 -152 33 -204q10 -6 35 -11l8 2q10 8 33 19q14 2 39 8q12 -2 22 -10l11 -25q0 -2 -3 -10q-31 -29 -96 -70q-14 -4 -44 -19t-40 -13q-88 0 -110 28q-18 37 -41 72q-2 0 -4 -2q-18 -6 -66 -47 q-80 -55 -182 -60q-6 0 -19.5 -3t-21.5 -3q10 0 -47 8q-145 39 -150 144l-10 12q-4 49 -4 74zM139 944q0 20 122 176t151 176q18 12 45 17q27 0 56.5 -12.5t148 -174t118.5 -188.5q0 -23 -35 -23q-27 0 -154.5 99.5t-135.5 99.5t-132 -102.5t-143 -102.5q-12 0 -26.5 12.5 t-14.5 22.5zM268 215q0 -86 27 -92q35 -27 94 -29q41 -2 90 21q61 29 77.5 53t16.5 90q6 25 -2 37q4 16 -2 29q-4 2 -7 17t-11 15q-10 0 -111 -28q-20 -4 -58 -10.5t-73 -36.5q-41 -33 -41 -66z" />
<glyph unicode="&#xe3;" horiz-adv-x="882" d="M84 207q0 68 66 112q23 16 71 41q186 66 271 68q39 0 69 12q14 72 14 99q0 57 -12 81.5t-59 49.5q-53 29 -111 28q-25 0 -59.5 -24.5t-41.5 -47t-38 -77.5q-12 -14 -86 -37q-12 6 -25 20q-29 16 -24 64q0 27 28 59q25 25 48 50q14 6 43 20q90 53 116 63q49 18 135 19 q195 0 254 -172q16 -47 11 -76q4 -16 4 -51q0 -33 -8.5 -96.5t-8.5 -94.5q0 -152 33 -204q10 -6 35 -11l8 2q10 8 33 19q14 2 39 8q12 -2 22 -10l11 -25q0 -2 -2 -10q-31 -29 -97 -70q-14 -4 -43.5 -19t-42.5 -13q-88 0 -108 28q-18 37 -41 72h-2q-2 -2 -4 -2 q-23 -6 -64 -47q-80 -55 -182 -60q-6 0 -19.5 -3t-21.5 -3q16 0 -49 8q-145 39 -148 144l-10 12q-4 49 -4 74zM135 1018q0 76 46 138.5t120 62.5q49 0 135 -45h6q53 -33 138 -68q57 -2 84 47q-2 -2 -2 18q0 49 30 50q39 0 41 -33q2 -4 2 -14q0 -72 -49 -130.5t-119 -58.5 q-45 0 -159.5 55.5t-128.5 55.5q-8 0 -23.5 -5.5t-24 -5.5t-16.5 -30l-12 -37q-8 -33 -29 -33h-4q-35 0 -35 33zM272 217q0 -86 27 -92q35 -27 94 -29q41 -2 90 21q61 29 78 53t17 90q0 31 -3 37q4 16 -4 29q-4 2 -7 17t-9 15q-10 0 -111 -28q-20 -4 -58 -10.5t-73 -36.5 q-41 -33 -41 -66z" />
<glyph unicode="&#xe4;" horiz-adv-x="882" d="M82 207q0 68 65 112q23 16 72 41q186 66 270 68q39 0 70 12q14 72 14 99q0 57 -12 81.5t-59 49.5q-53 29 -111 28q-25 0 -59.5 -24.5t-41.5 -47t-38 -77.5q-12 -14 -86 -37q-12 6 -25 20q-29 16 -24 64q0 27 28 59q25 25 48 50q14 6 43 20q90 53 116 63q49 18 135 19 q195 0 254 -172q16 -47 11 -76q4 -16 4 -51q0 -33 -8.5 -96.5t-8.5 -94.5q0 -152 33 -204q10 -6 35 -11l8 2q10 8 33 19q14 2 39 8q12 -2 22 -10l11 -25q0 -2 -2 -10q-31 -29 -97 -70q-14 -4 -43.5 -19t-42.5 -13q-88 0 -108 28q-18 37 -41 72h-2q-2 -2 -4 -2 q-23 -6 -64 -47q-80 -55 -182 -60q-6 0 -19.5 -3t-21.5 -3q16 0 -49 8q-145 39 -148 144l-10 12q-4 49 -4 74zM139 1090q0 53 43 81.5t70 28.5q25 0 59 -29q47 -38 47 -81q0 -41 -53 -78t-65 -37q-53 0 -84 57q-16 31 -17 58zM270 217q0 -86 27 -92q35 -27 94 -29 q41 -2 90 21q61 29 77.5 53t16.5 90q0 31 -2 37q4 16 -4 29q-4 2 -7 17t-9 15q-10 0 -111 -28q-20 -4 -58 -10.5t-73 -36.5q-41 -33 -41 -66zM520 1083q0 27 31 68q41 53 80 53q23 0 35 -14t24 -31q2 -2 39 -24q14 -10 14 -41q-2 -66 -43 -86q-61 -31 -69 -31q-45 0 -82 43 q-29 43 -29 63z" />
<glyph unicode="&#xe5;" horiz-adv-x="862" d="M78 207q0 68 65 112q23 16 72 41q186 66 270 68q39 0 70 12q14 72 14 99q0 57 -12 81.5t-59 49.5q-53 29 -111 28q-25 0 -59.5 -24.5t-41.5 -47t-38 -77.5q-12 -14 -86 -37q-12 6 -25 20q-29 16 -24 64q0 27 28 59q25 25 47 50q14 6 43 20q90 53 117 63q49 18 135 19 q195 0 254 -172q16 -47 11 -76q4 -16 4 -51q0 -33 -8.5 -96.5t-8.5 -94.5q0 -152 33 -204q10 -6 35 -11l8 2q10 8 33 19q14 2 39 8q12 -2 22 -10l10 -25q-2 -2 -4 -10q-33 -29 -94 -70q-14 -4 -44 -19t-42 -13q-88 0 -110 28q-8 10 -39 72h-2q-2 -2 -5 -2q-23 -6 -63 -47 q-80 -55 -182 -60q-6 0 -19.5 -3t-21.5 -3q16 0 -49 8q-145 39 -150 144l-8 12q-4 49 -4 74zM252 1171q0 -16 10 33q37 176 195 178q86 0 149.5 -61.5t63.5 -149.5q0 -84 -59.5 -146t-143.5 -62q-35 0 -84 26q-131 72 -131 182zM266 217q0 -86 27 -92q35 -27 94 -29 q41 -2 90 21q61 29 77.5 53t16.5 90q0 31 -2 37q4 16 -4 29q-4 2 -7 17t-9 15q-10 0 -111 -28q-20 -4 -58 -10.5t-73 -36.5q-41 -33 -41 -66zM350 1180q0 -49 35 -85t84 -36q45 0 75.5 32.5t30.5 75.5q0 14 -9 40t-11 32q-37 45 -70 49q-8 -6 -34 -6q-41 0 -71 -30.5 t-30 -71.5z" />
<glyph unicode="&#xe6;" horiz-adv-x="1300" d="M86 207q0 68 66 112q23 16 73 41q172 66 271 68q39 0 67 12q8 33 17 99q2 55 -10.5 79.5t-63.5 52t-111 27.5q-25 0 -59.5 -24.5t-40.5 -47t-39 -77.5q-10 -12 -84 -37q-12 6 -25 20q-27 16 -26 64q0 27 29 59q25 25 47 50q14 6 43 20q90 53 116 63q49 18 136 19 q147 0 219 -109q8 8 12 15q82 55 115 71q59 27 133 27q100 0 196 -47q111 -51 142 -135q2 -6 14 -25t12 -33q0 -23 -26 -57q-6 -10 -19 -25q-27 -14 -231 -14q-63 0 -301 -22q-2 -16 -14.5 -44t-12.5 -47q0 -68 19 -102q35 -66 147 -104q88 -29 180 -31q33 0 70 22 q51 33 59 38t35 20.5t31 15.5t24 6l7 -4q6 -12 6 -24q0 -14 -13.5 -31.5t-25.5 -34.5q-20 -37 -27 -43q-23 -12 -43 -24q-4 -4 -13 -11.5t-28 -19.5q-98 -55 -201 -53q-33 0 -129 32q-33 10 -92 33q-43 43 -71 57q-2 2 -7 11q-6 -6 -34 -31l-4 -2q-23 -6 -64 -47 q-78 -53 -219 -60q-6 0 -19.5 -3t-21.5 -3q10 0 -47 8q-145 39 -150 144l-10 12q-4 49 -4 74zM279 217q2 -88 24 -92q35 -27 94 -27q88 0 148 27q33 14 78 47q-51 76 -56 182q-4 4 -8 4q-10 0 -110 -28q-20 -4 -58.5 -10.5t-73.5 -36.5q-41 -33 -38 -66zM762 575 q0 -35 12 -43q39 0 127 3.5t127 3.5q53 0 105 30l4 11q4 8 -5.5 31.5t-19.5 29.5q-18 39 -71.5 63.5t-100.5 24.5q-104 0 -154 -106q-10 -18 -24 -48z" />
<glyph unicode="&#xe7;" horiz-adv-x="774" d="M78 313q0 6 3 17.5t3 17.5q-2 -18 -2 72q0 152 149 276q143 121 295 121q84 0 166 -31q107 -38 107 -108q0 -8 -4 -21q-8 -31 -17 -63q-8 -18 -61 -19q-53 0 -82 39q-37 49 -74 66q-4 6 -127 6q-23 0 -47 -10l-6 -12q-6 -4 -45 -51.5t-43 -53.5q-39 -37 -37 -127l10 -96 t64 -150q8 -8 67 -24q100 -37 152 -41q59 0 112.5 29.5t67.5 29.5q29 0 32 -4t3 -33t-62.5 -78t-95.5 -59q-59 -16 -135 -16h-2q-8 -25 -12 -33q14 -20 18 -22.5t31 -2.5q53 0 97 -39.5t44 -93.5q0 -70 -65 -114q-57 -39 -133 -39h-54q-16 0 -65 8q-39 6 -50.5 15t-19.5 46 q0 8 2 6t11.5 12.5t13.5 14.5q8 0 25.5 -4t25.5 -4q92 0 96 47v4l-4 4q-4 8 -5 9t-4 5.5t-9 18.5v4q0 31 -9 49q-2 4 -18 21q-12 10 -8 20q-2 2 8 31t14 33l7 10v2q-88 14 -136 41q-14 12 -49 31q-23 12 -57 39q-8 14 -25 45q-61 96 -61 159z" />
<glyph unicode="&#xe8;" horiz-adv-x="800" d="M76 416q0 16 17.5 72.5t27.5 72.5q25 37 74 109q14 12 41 41q82 55 114 71q59 27 133 27q100 0 197 -47q111 -51 141 -135q2 -4 14.5 -24t12.5 -36q0 -20 -27 -55q-6 -10 -18 -25q-27 -14 -232 -14q-63 0 -301 -22q-2 -16 -14 -44t-12 -47q0 -68 18 -102q35 -66 148 -104 q88 -29 182 -31q33 0 70 22q51 33 61 37q4 4 31.5 20.5t30.5 16.5t24 6l6 -4q6 -12 6 -24q0 -14 -13 -32t-26 -34q-20 -37 -26 -43q-23 -12 -43 -25q-4 -4 -11.5 -11t-29.5 -19q-98 -55 -201 -53q-33 0 -129 32q-33 10 -92 33q0 2 -34 29.5t-37 31t-11 17.5t-14 20 q-78 94 -78 273zM113 1239q0 37 33.5 61.5t68.5 24.5q45 0 82 -39q61 -80 184 -233q18 -16 54 -52q20 -26 20 -36q0 -29 -33 -29q-25 0 -182 98q-147 92 -182 123q-47 41 -45 82zM274 573q0 -35 13 -43q39 0 127 3.5t129 3.5q55 0 102 30l4 11q4 8 -5 31.5t-17 29.5 q-18 39 -71.5 63.5t-102.5 24.5q-104 0 -154 -106q-10 -18 -25 -48z" />
<glyph unicode="&#xe9;" horiz-adv-x="817" d="M78 416q0 16 17.5 72.5t27.5 72.5q25 37 74 109q14 12 41 41q82 55 114 71q59 27 133 27q100 0 197 -47q111 -51 141 -135q2 -4 14.5 -24t12.5 -36q0 -20 -27 -55q-6 -10 -18 -25q-27 -14 -232 -14q-63 0 -301 -22q-2 -16 -14 -44t-12 -47q0 -68 18 -102q35 -66 148 -104 q88 -29 182 -31q33 0 70 22q51 33 61 37q4 4 31.5 20.5t31 16.5t23.5 6l6 -4q6 -12 6 -24q0 -14 -13 -32t-26 -34q-20 -37 -26 -43q-23 -12 -43 -25q-4 -4 -11.5 -11t-29.5 -19q-98 -55 -201 -53q-33 0 -129 32q-33 10 -92 33q0 2 -34 29.5t-37 31t-11 17.5t-14 20 q-78 94 -78 273zM276 573q0 -35 13 -43q39 0 127 3.5t129 3.5q55 0 102 30l4 11q4 8 -5 31.5t-17 29.5q-18 39 -71.5 63.5t-102.5 24.5q-104 0 -154 -106q-10 -18 -25 -48zM393 965q0 6 19 36q18 16 53 52q59 80 186 233q37 39 80 39q37 0 71 -24.5t34 -59.5q2 -43 -45 -84 q-35 -31 -183 -123q-158 -98 -182 -96q-33 2 -33 27z" />
<glyph unicode="&#xea;" horiz-adv-x="821" d="M86 416q0 16 17.5 72.5t25.5 72.5q27 35 76 109q14 12 39 41q82 55 114 71q61 27 136 27q100 0 196 -47q111 -51 141 -135q2 -4 14.5 -24t12.5 -36q0 -20 -27 -55q-6 -10 -18 -25q-27 -14 -231 -14q-63 0 -301 -22q-2 -16 -14.5 -44t-12.5 -47q0 -72 16 -102 q35 -66 148 -104q88 -29 182 -31q33 0 70 22q51 33 59 38t35 20.5t34 16.5t19 5l8 -4q6 -12 6 -24q0 -14 -16 -35q-25 -31 -24 -31q-23 -37 -26 -40t-42 -28q-4 -4 -12.5 -11t-30.5 -19q-98 -55 -199 -53q-33 0 -129 32q-33 10 -94 33q-33 29 -68 57q-4 6 -12 20.5t-14 20.5 q-78 94 -78 273zM164 944q0 20 122 176t148 176q16 12 47 17q33 0 58.5 -12.5t144.5 -173t121 -189.5q-2 -23 -35 -23q-27 0 -155 99.5t-138 99.5q-6 0 -131 -102.5t-143 -102.5q-12 0 -26.5 12.5t-12.5 22.5zM285 573q0 -35 12 -43q39 0 127 3.5t127 3.5q53 0 104 30l4 11 q2 10 -7 32.5t-17 28.5q-18 39 -71.5 63.5t-102.5 24.5q-104 0 -154 -106q-23 -49 -22 -48z" />
<glyph unicode="&#xeb;" horiz-adv-x="837" d="M90 418q0 16 17.5 72.5t25.5 72.5q27 35 76 109q14 12 41 41q82 55 115 71q59 27 133 27q100 0 196 -47q111 -51 142 -135q2 -4 14 -24t12 -36q0 -20 -26 -55q-6 -10 -19 -25q-27 -14 -231 -14q-63 0 -301 -22q-2 -16 -14.5 -44t-12.5 -47q0 -68 18 -102q35 -66 148 -104 q88 -29 180 -31q33 0 70 22q51 33 63 37q4 4 32 20.5t31 16.5t23 6l6 -4q6 -12 7 -24q0 -14 -13.5 -31.5t-25.5 -34.5q-20 -37 -27 -43q-23 -12 -43 -24q-4 -4 -11 -11.5t-30 -19.5q-98 -55 -201 -53q-33 0 -129 32q-33 10 -92 33q0 2 -33.5 29.5t-37 31t-11.5 17.5t-14 20 q-78 94 -78 273zM184 1090q0 55 43 82.5t70 27.5q25 0 59 -29q47 -38 47 -81q0 -41 -53 -78t-63 -37q-53 0 -86 57q-16 29 -17 58zM289 575q0 -35 12 -43q39 0 127 3.5t127 3.5q53 0 104 30l5 11q4 8 -5.5 31.5t-17.5 29.5q-18 39 -71.5 63.5t-102.5 24.5q-104 0 -154 -106 q-10 -18 -24 -48zM563 1083q0 27 33 68q43 53 78 53q23 0 35 -14t24 -31q2 -2 37 -24q16 -10 16 -41q0 -66 -41 -86q-61 -31 -71 -31q-45 0 -82 43q-29 43 -29 63z" />
<glyph unicode="&#xec;" horiz-adv-x="620" d="M78 1239q0 37 33.5 61.5t68.5 24.5q45 0 82 -39q61 -80 184 -233q18 -16 54 -52q20 -26 20 -36q4 -29 -33 -29q-25 0 -180 98q-150 92 -182 123q-47 43 -47 82zM219 25v10q14 33 78 47q51 12 51 94q0 14 2 40t2 38q0 16 -2 47t-2 45q0 12 3 38t3 40q0 -4 -6 20v109 q-4 88 -18 88l-13 12v2q-29 6 -59.5 13.5t-30.5 40.5q0 23 17 28q49 12 141 37q33 16 96 43q16 -2 31 -14q20 -37 18 -113q0 -27 -4 -110q-2 -70 -2 -111q0 -12 -4 -55t-4 -64q0 -25 6 -73t6 -72q0 -92 23 -117q10 -10 53 -12q37 -4 55 -39q-2 -43 -77 -43q-23 0 -68 3 t-68 3q-27 0 -75.5 -3t-73.5 -3q-47 0 -78 31z" />
<glyph unicode="&#xed;" horiz-adv-x="569" d="M86 25v10q14 33 78 47q51 12 51 94q0 14 2 40t2 38q0 16 -2 47t-2 45q0 12 3 38t3 40q0 -4 -6 20v109q-4 88 -18 88l-13 12v2q-29 6 -59.5 13.5t-30.5 40.5q0 23 17 28q49 12 141 37q33 16 96 43q16 -2 31 -14q20 -39 20 -113q0 -41 -4 -110q-4 -80 -4 -111q0 -12 -4 -54 t-4 -65q0 -25 6 -73t6 -72q0 -92 23 -117q10 -10 53 -12q37 -4 55 -39q-2 -43 -77 -43q-23 0 -68 3t-66 3q-25 0 -75 -3t-76 -3q-47 0 -78 31zM164 965q0 10 20 36q18 16 52 52q59 80 186 233q37 39 82 39q37 0 70.5 -24.5t33.5 -59.5q0 -41 -47 -84q-35 -31 -182 -123 q-158 -98 -182 -96q-33 2 -33 27z" />
<glyph unicode="&#xee;" horiz-adv-x="667" d="M80 944q0 20 122 176t150 176q18 12 45 17q27 0 56.5 -12.5t148.5 -174t119 -188.5q0 -23 -35 -23q-27 0 -155 99.5t-138 99.5q-8 0 -132 -102.5t-140 -102.5q-12 0 -26.5 12.5t-14.5 22.5zM184 25v10q14 33 78 47q53 12 53 94q0 12 2 38t2 40q0 16 -3 48t-3 44t3 39 t3 39q0 -4 -6 20q-2 20 0 56q2 41 2 53q0 14 -6 51t-12 37l-12 12v2q-29 6 -59.5 13.5t-30.5 40.5q0 23 14 28l143 37q33 16 97 43q16 -2 28 -14q20 -39 21 -113q0 -41 -4 -110q-4 -80 -5 -111q0 -12 -4 -54t-4 -65q0 -27 7.5 -74t7.5 -71q0 -92 22 -117q10 -10 49.5 -13 t57.5 -38q-2 -43 -76 -43q-23 0 -68 3t-67 3q-25 0 -75 -3t-77 -3q-47 0 -78 31z" />
<glyph unicode="&#xef;" horiz-adv-x="655" d="M86 1090q0 53 42 81.5t71 28.5q25 0 59 -29q49 -38 47 -81q-2 -41 -53 -78t-66 -37q-53 0 -84 57q-16 31 -16 58zM168 25v10q14 33 78 47q51 12 51 94q0 14 2 40t2 38q0 16 -2 47t-2 45q0 12 3 38t3 40q0 -4 -6 20q-2 20 0 56q2 41 2 53q0 14 -6 51t-12 37q-8 8 -15 12v2 q-29 6 -59.5 13.5t-30.5 40.5q0 23 17 28q49 12 141 37q33 16 96 43q16 -2 31 -14q20 -39 20 -113q0 -41 -4 -110q-4 -80 -4 -111q0 -12 -4 -54t-4 -65q0 -25 6 -73t6 -72q0 -92 23 -117q10 -10 53 -12q37 -4 55 -39q-2 -43 -78 -43q-23 0 -67.5 3t-65.5 3q-25 0 -75 -3 t-76 -3q-47 0 -78 31zM463 1083q0 27 33 68q43 53 79 53q23 0 34.5 -14t23.5 -31q4 -4 37 -24q16 -10 16 -41q0 -66 -41 -86q-61 -31 -72 -31q-45 0 -81 43q-29 43 -29 63z" />
<glyph unicode="&#xf0;" horiz-adv-x="954" d="M96 393q0 111 68 205q152 213 414 213q57 0 114 -14q-27 63 -61 106q-8 16 -29 41q-70 55 -160 90q-2 -16 -10 -30q-18 -37 -24 -43q-14 -20 -37 -29q-68 -25 -86 10q-6 12 0 51t26 70q-16 2 -125 14q-33 4 -32 19l2 4q-6 6 -6 12l2 6q4 10 45 45q51 16 143 17 q-2 0 35 -13q-2 20 24 72q8 16 33 41q55 31 80 -12q8 -14 2 -33q-8 -18 -17.5 -35.5t-33.5 -56.5q70 -29 86 -35q37 -18 80 -51q104 -76 159.5 -151t110.5 -199q61 -141 62 -195q0 -18 8 -57t8 -58q0 -150 -132 -285t-280 -135q-133 0 -194 19q-76 23 -168 100q-6 18 -53 84 q-45 57 -46 88q0 18 -4 60.5t-4 64.5zM274 438q0 -6 4.5 -17t4.5 -20q0 -59 22 -141q27 -96 64 -123q18 -12 53 -41q72 -47 113 -47q152 2 198 131q12 27 27 56q8 20 8 69q0 18 4 54.5t4 52.5q2 100 -53 193t-145 120q-35 6 -50 4q-18 0 -34 -6q-23 -10 -31 -12 q-66 -14 -88 -39q-27 -37 -53 -76q-6 -8 -13.5 -18.5l-17.5 -24.5q-16 -55 -17 -115z" />
<glyph unicode="&#xf1;" horiz-adv-x="1024" d="M88 33v8q2 8 18 14l5 4q27 4 59 15q20 14 33 57q14 37 12 66q0 6 -2 26.5t-2 32.5q0 2 12 106q4 8 4 15q0 12 -6 35.5t-6 33.5q0 78 2 60q0 20 -13.5 64t-27.5 46q-53 31 -53 58l-12 26l-7 2q0 18 37 31q25 6 76 21q29 16 84 41q4 2 8 3t8 3q18 0 25 -6l10 -2 q10 -2 23 -9l6 -8q4 -29 25 -88q68 41 135 80q63 33 161 33q74 0 107 -29q66 -23 102 -94q33 -63 33 -137q0 -31 -5 -101.5t-3 -107.5q0 -18 5 -57t5 -60q0 -10 -3 -30.5t-3 -30.5q0 -55 43 -86q33 -4 70 -15q4 -2 14 -12v-8l4 -2q-8 -41 -70 -41q-33 0 -98 5t-100 5 q-2 0 -144 -6q-25 6 -24 18q0 41 49 56q57 14 68 43q18 6 18 45q0 20 -7 59t-7 57q0 14 5 42t5 40t-3 38t-3 36q0 8 7 24.5t5 26.5q0 102 -104 148q-2 0 -21.5 14t-36.5 14q-147 0 -207 -69l-2 -47l-6 -123q0 -6 -6 -19.5t-6 -17.5t4 -139q2 -53 4 -82q6 -59 23 -74 q14 -4 41 -18q37 -8 59 -37q0 -37 -45 -37q-16 0 -51 4t-53 4q-27 0 -77 -3t-75 -3q-18 0 -55 2t-54 2q-8 0 -13 10t-1 15l2 4zM252 1018q0 76 46 138.5t120 62.5q49 0 135 -45h6q53 -33 139 -68q59 -2 82 47q-2 -2 -2 18q0 49 31 50q39 0 41 -33q2 -4 2 -14 q2 -72 -47 -130.5t-121 -58.5q-45 0 -159.5 55.5t-129.5 55.5q-8 0 -23.5 -5.5t-23.5 -5.5t-16 -30q-12 -37 -13 -37q-8 -33 -28 -33h-4q-35 0 -35 33z" />
<glyph unicode="&#xf2;" horiz-adv-x="909" d="M78 391q0 111 67 205q152 213 414 213q131 0 223 -61q20 -14 47 -48q20 -25 44 -53.5t38 -64.5q31 -37 31 -72q0 -18 8 -57.5t8 -57.5q0 -150 -132 -285t-279 -135q-133 0 -195 19q-76 23 -170 100q-6 18 -53 84q-43 57 -43 88q0 18 -4 61.5t-4 63.5zM184 1239 q0 37 34 61.5t69 24.5q45 0 82 -39q61 -80 186 -233q18 -16 53 -52q21 -26 21 -36q0 -29 -35 -29q-25 0 -180 98q-150 92 -183 123q-47 43 -47 82zM254 436q0 -6 5 -18t5 -19q0 -59 23 -141q27 -96 63 -123q18 -12 53 -41q72 -47 113 -47q152 2 197 131q12 27 26 55 q10 23 11 70q0 18 4 54.5t4 52.5q0 100 -54.5 193t-144.5 120q-41 6 -49 4q-18 0 -35 -6q-23 -10 -31 -12q-66 -14 -88 -39q-27 -37 -53 -76q-6 -8 -13 -18.5t-18 -24.5q-8 -51 -18 -115z" />
<glyph unicode="&#xf3;" horiz-adv-x="909" d="M78 391q0 111 67 205q152 213 414 213q131 0 223 -61q20 -14 47 -48q20 -25 44 -53.5t38 -64.5q31 -37 31 -72q0 -18 8 -57.5t8 -57.5q0 -150 -132 -285t-279 -135q-133 0 -195 19q-76 23 -170 100q-6 18 -53 84q-43 57 -43 88q0 18 -4 61.5t-4 63.5zM254 436q0 -6 5 -18 t5 -19q0 -59 23 -141q27 -96 63 -123q18 -12 53 -41q72 -47 113 -47q152 2 197 131q12 27 26 55q10 23 11 70q0 18 4 54.5t4 52.5q0 100 -54.5 193t-144.5 120q-41 6 -49 4q-18 0 -35 -6q-23 -10 -31 -12q-66 -14 -88 -39q-27 -37 -53 -76q-6 -8 -13 -18.5t-18 -24.5 q-8 -51 -18 -115zM403 965q0 10 21 36q18 16 51 52q59 80 187 233q37 39 81 39q37 0 71 -24.5t34 -59.5q0 -43 -45 -84q-35 -31 -182 -123q-158 -98 -185 -96q-33 2 -33 27z" />
<glyph unicode="&#xf4;" horiz-adv-x="931" d="M86 391q0 111 68 205q152 213 413 213q131 0 221 -61q31 -35 91 -99q27 -27 41 -67q31 -37 30 -72q0 -18 8.5 -57.5t8.5 -57.5q0 -150 -132.5 -285t-279.5 -135q-133 0 -195 19q-76 23 -170 100q-6 18 -53 84q-43 57 -43 88q0 18 -4 61.5t-4 63.5zM213 944q0 20 122 176 t148 176q16 12 45 17q27 0 56.5 -12.5t148.5 -174t119 -188.5q0 -23 -33 -23q-27 0 -154.5 99.5t-138.5 99.5q-6 0 -131 -102.5t-143 -102.5q-12 0 -26.5 12.5t-12.5 22.5zM262 436q0 -6 4 -17t4 -20q0 -59 23 -141q29 -96 65.5 -122.5t53.5 -41.5q72 -47 112 -47 q152 2 197 131q12 27 27 55q10 23 10 70q0 18 4 54.5t4 52.5q0 100 -54.5 193t-144.5 120q-41 6 -49 4q-18 0 -35 -6q-23 -10 -30 -12q-66 -14 -88 -39q-27 -37 -54 -76q-6 -8 -13 -18.5t-17 -24.5q-8 -51 -19 -115z" />
<glyph unicode="&#xf5;" horiz-adv-x="940" d="M92 393q2 113 68 205q152 213 413 213q131 0 222 -61q31 -35 90 -99q31 -31 39 -67q20 -25 24 -31q8 -14 8 -41q0 -18 8.5 -57.5t8.5 -57.5q0 -150 -132 -285t-282 -135q-133 0 -194 19q-76 23 -168 100q-6 18 -54 84q-45 57 -45 88q0 14 -4 62q-2 41 -2 63zM231 1018 q0 76 46.5 138.5t119.5 62.5q49 0 133 -45h7q53 -33 139 -68q57 -2 84 47q-2 -2 -2 18q0 49 28 50q39 0 43 -33q2 -4 2 -14q0 -72 -49 -130.5t-118 -58.5q-45 0 -161 55.5t-130 55.5q-8 0 -23.5 -5.5t-24 -5.5t-16.5 -30l-12 -37q-8 -33 -27 -33h-4q-35 0 -35 33zM268 438 q0 -6 4 -17t4 -20q0 -59 23 -141q29 -96 65.5 -122.5t53.5 -41.5q72 -47 110 -47q152 2 199 131q12 27 27 56q8 20 8 69q0 18 4 54.5t4 52.5q2 100 -52 193t-145 120q-41 6 -51 4q-18 0 -36.5 -8t-26.5 -10q-66 -14 -88 -39q-27 -39 -54 -76q-6 -8 -12 -21q-2 -4 -10 -11 t-10 -11q-16 -49 -17 -115z" />
<glyph unicode="&#xf6;" horiz-adv-x="942" d="M92 393q0 111 68 205q152 213 413 213q131 0 224 -61q20 -14 47 -48q20 -25 43.5 -53t38.5 -65q31 -37 30 -72q0 -18 8.5 -57.5t8.5 -57.5q0 -150 -132 -285t-280 -135q-133 0 -194 19q-76 23 -170 100q-6 18 -54 84q-43 57 -43 88q0 18 -4 61.5t-4 63.5zM217 1090 q0 53 42 81.5t71 28.5q25 0 59 -29q47 -38 47 -81q0 -41 -53 -78t-64 -37q-53 0 -86 57q-16 29 -16 58zM270 438q0 -6 4.5 -17t4.5 -20q0 -59 22 -141q27 -96 64 -123q18 -12 53 -41q72 -47 112 -47q152 2 197 131q12 27 27 56q10 23 10 69q0 18 4 54.5t4 52.5 q0 100 -54 193t-145 120q-41 6 -49 4q-18 0 -35 -6q-23 -10 -30 -12q-66 -14 -88 -39q-27 -37 -54 -76q-6 -8 -13 -18.5t-17 -24.5q-16 -55 -17 -115zM596 1083q0 27 31 68q41 53 80 53q23 0 35 -14t24 -31q2 -2 37 -24q16 -10 16 -41q0 -66 -41 -86q-61 -31 -71 -31 q-45 0 -82 43q-29 43 -29 63z" />
<glyph unicode="&#xf8;" horiz-adv-x="915" d="M78 393q0 111 67 205q152 213 414 213q70 0 131 -20q12 27 43 73.5t43 73.5q39 25 41 25q4 0 49 -23l-69 -135q-10 -18 -31 -43q6 -4 16 -12q20 -14 47 -48q20 -25 44 -53t38 -65q31 -37 31 -72q0 -18 8 -57.5t8 -57.5q0 -150 -132 -285t-281 -135q-139 0 -201 21 q-49 -86 -70 -131l-43 -31l-53 25q8 18 82 137q8 12 14 33q-41 23 -92 65q-6 18 -53 84q-43 57 -43 88q0 18 -4 61.5t-4 63.5zM254 438q0 -6 5 -18t5 -19q0 -55 21 -133q25 -90 57 -123q20 43 66 129q98 166 153 267q18 39 57 112q7 11 17 31q-37 29 -76 41q-41 6 -49 4 q-18 0 -35 -6q-23 -10 -31 -12q-66 -14 -88 -39q-27 -37 -53 -76q-6 -8 -13 -18.5t-18 -24.5q-8 -51 -18 -115zM399 100l4 -4q72 -47 113 -47q152 2 197 131q12 27 26 56q10 23 11 69q0 18 4 54.5t4 52.5q0 117 -68 213q-20 -45 -67 -133q-39 -72 -123 -209q-12 -27 -41 -80 q-14 -27 -47 -76q-8 -16 -13 -27z" />
<glyph unicode="&#xf9;" horiz-adv-x="999" d="M72 735q6 25 51 41q37 12 67 12q45 0 140 -45q20 -25 20 -139q0 -12 -6 -35.5t-6 -33.5l-4 -68q0 -6 14 -150q4 -41 8 -81.5t31 -79.5q12 -23 26.5 -42.5t45.5 -19.5q92 0 149 25q12 8 37 18q41 14 76 62q20 29 10 272q0 2 5 11.5t5 19.5q0 104 -18 135q-12 20 -53 25 q-51 6 -84 32l2 2q-6 6 -6 17q0 18 18 37q8 4 92 16t101 12q35 0 71 -12q43 -55 43 -133q0 -27 -3 -82t-3 -84q0 -78 -6 -123t-6 -49q0 -49 4 -94q2 -14 20.5 -52t28.5 -40l10 -7q8 0 22.5 5.5t20.5 5.5q23 0 31 -11q16 -4 23 -14l2 -4q-8 -51 -205 -88q-6 -2 -16.5 -8 t-16.5 -6q-63 0 -70 45q-10 59 -16 63q-39 -10 -109.5 -49t-107.5 -49q-16 -2 -47 -8q-41 -12 -57 -11q-8 0 -35 8.5t-43 8.5q-41 0 -81 45t-38 86q0 10 -8 36.5t-11 32.5q-2 23 0 78q0 20 -5 60.5t-5 60.5q0 18 5 53t5 52q0 8 -14 65t-18 64v8q0 35 -13 39q-23 16 -59 32 l-12 19q0 10 -2 14zM141 1239q0 37 34 61.5t69 24.5q45 0 82 -39q61 -80 186 -233q18 -16 53 -52q21 -26 21 -36q0 -29 -35 -29q-25 0 -180 98q-150 92 -183 123q-47 43 -47 82z" />
<glyph unicode="&#xfa;" horiz-adv-x="991" d="M72 735q6 25 51 41q37 12 67 12q45 0 140 -45q20 -25 20 -139q0 -12 -6 -35.5t-6 -33.5l-4 -68q0 -6 14 -150q4 -41 8 -81.5t31 -79.5q12 -23 26.5 -42.5t45.5 -19.5q92 0 149 25q12 8 37 18q41 14 76 62q20 29 10 272q0 2 5 11.5t5 19.5q0 104 -18 135q-12 20 -53 25 q-51 6 -84 32l2 2q-6 6 -6 17q0 18 18 37q8 4 92 16t101 12q35 0 71 -12q43 -55 43 -133q0 -27 -3 -82t-3 -84q0 -78 -6 -123t-6 -49q0 -49 4 -94q2 -14 20.5 -52t28.5 -40l10 -7q8 0 22.5 5.5t20.5 5.5q23 0 31 -11q16 -4 23 -14l2 -4q-8 -51 -205 -88q-6 -2 -16.5 -8 t-16.5 -6q-63 0 -70 45q-10 59 -16 63q-39 -10 -109.5 -49t-107.5 -49q-16 -2 -47 -8q-41 -12 -57 -11q-8 0 -35 8.5t-43 8.5q-41 0 -81 45t-38 86q0 10 -8 36.5t-11 32.5q-2 23 0 78q0 20 -5 60.5t-5 60.5q0 18 5 53t5 52q0 8 -14 65t-18 64v8q0 35 -13 39q-23 16 -59 32 l-12 19q0 10 -2 14zM442 965q0 10 21 36q18 16 51 52q59 80 186 233q37 39 82 39q37 0 71 -24.5t34 -59.5q0 -43 -45 -84q-35 -31 -183 -123q-158 -98 -184 -96q-33 2 -33 27z" />
<glyph unicode="&#xfb;" horiz-adv-x="1021" d="M82 735q6 25 51 41q37 12 70 12q47 0 137 -45q20 -25 20 -139q0 -12 -6 -35.5t-6 -33.5l-2 -68q0 -6 12 -150q4 -41 8.5 -81.5t30.5 -79.5q12 -23 26.5 -42.5t47.5 -19.5q92 0 147 25q12 8 37 18q41 14 76 62q20 29 10 272q0 2 5.5 11.5t5.5 19.5q0 104 -19 135 q-12 20 -53 25q-51 6 -84 32l2 2q-6 6 -6 17q0 18 18 37q8 4 92 16t101 12q35 0 71 -12q43 -55 44 -133q0 -27 -3.5 -82t-3.5 -84q0 -82 -4 -121q0 -8 -4 -25.5t-4 -25.5q0 -49 4 -94q2 -14 20.5 -52t28.5 -40l11 -7q8 0 22 5.5t21 5.5q23 0 30 -11q16 -4 23 -14l2 -4 q-8 -49 -203 -88q-6 -2 -17.5 -8t-17.5 -6q-63 0 -69 45q-10 59 -17 63q-39 -10 -109.5 -49t-107.5 -49q-16 -2 -47 -8q-41 -12 -57 -11q-8 0 -35 8.5t-43 8.5q-41 0 -81 45t-38 86q0 10 -8 36.5t-10 32.5q-2 23 0 78q0 20 -5.5 60.5t-5.5 60.5q0 18 5.5 53t5.5 52 q0 8 -14.5 65t-18.5 64v8q0 35 -12 39q-23 16 -58 32q-4 6 -14 19q0 10 -2 14zM213 944q0 20 122 176t150 176q18 12 45 17q27 0 56.5 -12.5t148.5 -174t119 -188.5q0 -23 -35 -23q-27 0 -154.5 99.5t-138.5 99.5q-8 0 -132 -102.5t-140 -102.5q-12 0 -26.5 12.5t-14.5 22.5 z" />
<glyph unicode="&#xfc;" d="M90 735q6 25 51 41q37 12 68 12q45 0 139 -45q20 -25 21 -139q0 -12 -6.5 -35.5t-6.5 -33.5l-4 -68q0 -6 15 -150q4 -41 8 -81.5t31 -79.5q12 -23 26 -42.5t45 -19.5q92 0 150 25q12 8 37 18q45 14 73 62q12 16 13 272q0 2 5 11.5t5 19.5q0 104 -19 135q-12 20 -53 25 q-51 6 -84 32l2 2q-6 6 -6 17q0 18 18 37q8 4 92.5 16t100.5 12q35 0 72 -12q43 -55 43 -133q0 -27 -3 -82t-3 -84q0 -78 -6.5 -123t-6.5 -49q0 -49 4 -94q2 -14 20.5 -52t29.5 -40l10 -7q8 0 22.5 5.5t20.5 5.5q23 0 30 -11q16 -4 23 -14v-4q-6 -51 -203 -88q-6 -2 -16 -8 t-17 -6q-63 0 -69 45q-10 59 -17 63q-39 -10 -109.5 -49t-107.5 -49q-16 -2 -47 -8q-41 -12 -57 -11q-8 0 -35 8.5t-43 8.5q-41 0 -81 45t-40 86q0 10 -8 34.5t-8 34.5q-2 20 0 78q0 20 -5 60.5t-5 60.5q0 18 5 53t5 52q0 8 -14.5 65t-18.5 64v8q0 35 -12 39q-23 16 -60 32 l-12 19q0 10 -2 14zM219 1090q0 53 42 81.5t71 28.5q25 0 59 -29q47 -38 47 -81q0 -41 -53 -78t-66 -37q-53 0 -83 57q-16 31 -17 58zM600 1083q0 27 31 68q41 53 80 53q23 0 35 -14t24 -31q2 -2 39 -24q14 -10 14 -41q-2 -66 -43 -86q-61 -31 -69 -31q-45 0 -82 43 q-29 43 -29 63z" />
<glyph unicode="&#xfd;" horiz-adv-x="878" d="M61 707q-6 6 0 30q0 31 50 31q31 0 91 3t89 3q76 0 90 -20l18 -2q4 -8 4 -15q0 -4 -8 -12t-10 -8q-16 -10 -45 -35q4 -20 10 -53v-8q0 -43 21.5 -83t44.5 -77q57 -117 69 -158q20 -68 37 -92l4 -2v-2q23 25 43.5 82t28.5 63q2 8 37 97q25 68 24 96q0 -14 7 49 q2 35 -13 43q-4 10 -16 27q-2 4 -2 17t-32 16t-32 20q0 2 -4 10t-4 16q0 20 29 37q8 4 24.5 -2t20.5 -6q23 0 80 -6q51 -4 80 -4q14 0 41.5 4t40.5 4q37 0 57 -12q0 -2 2 -6v-7q0 -45 -43 -51q-53 -6 -72 -37q-8 -23 -24 -63q-8 -18 -27.5 -56t-28.5 -57q-10 -35 -34 -102 q-29 -51 -78 -156q-18 -59 -64 -170q-20 -23 -55 -71q-14 -33 -57 -95q-8 -29 -39 -77q-18 -18 -37 -35q-14 -23 -45 -66q-70 -82 -156 -84q-53 -2 -37 -4q-12 0 -20 5t-23 24q-20 16 -20 47v16q8 12 14 17q16 59 60 59q4 0 11 -3t16 -2t30.5 -2t32.5 -3q41 0 59 14 q12 12 33 51q37 27 84 166q-10 72 -137 264q-14 43 -35 103.5t-90 193.5q-14 27 -27 54q-18 33 -68 82zM465 965q0 10 20 36q18 16 52 52q59 80 186 233q37 39 82 39q37 0 70.5 -24.5t33.5 -59.5q0 -43 -45 -84q-35 -31 -182 -123q-158 -98 -184 -96q-33 2 -33 27z" />
<glyph unicode="&#xfe;" horiz-adv-x="937" d="M78 -406q0 6 6 13v4q-2 31 69.5 37t71.5 65q0 27 -3 82t-3 84q0 33 4 98.5t4 98.5q0 12 -3 38t-3 40v176q-2 117 -2 176q0 72 -6 203q-8 141 -8 202q0 16 10 47t10 46l-6 92q0 2 -6 11t-6 15q0 20 2 59.5t2 57.5q0 61 -29 78q-41 12 -80 26l-2 9l-6 4q-4 4 -4 14 q4 4 9 14.5t12.5 14.5t25.5 14q25 2 70 10q43 27 137 60q20 2 43 -10q12 -14 12 -46q0 -31 -5 -90t-5 -86q0 -25 3 -71.5t3 -67.5v-375q2 -6 6 -16q8 0 21.5 4t19.5 4q41 29 114 53.5t120 24.5q106 0 201 -105q14 -12 30 -32q6 -14 19 -45q51 -125 51 -224q0 -12 -4 -45 q-12 -23 -25.5 -71.5t-23.5 -69.5q-59 -127 -195 -192l-57 -19q-59 -25 -90 -24q-68 0 -99 14q-12 8 -57 26q-4 0 -29 17q-8 -8 -8 -25q0 -10 3 -29.5t3 -27.5v-4h-2q-8 -129 -6 -178q4 -66 74 -111q82 -51 84 -57q8 -10 -4 -45q-14 -6 -37 0q-29 10 -41 10h-252 q-16 0 -51 2t-50.5 2t-19.5 2q-12 8 -12 18zM393 479q4 -16 4 -28v-62q-2 -45 -2 -61q0 -27 2 -66q2 -55 2 -67q4 -18 18.5 -47t69 -52.5t88.5 -23.5q29 0 72 14t62 33q8 10 26 35q61 74 62 155q0 10 -2 12.5t-3 7.5t-3.5 10t-2.5 27.5t-7 67.5t-7 70q0 55 -70.5 108.5 t-130.5 51.5q-35 -8 -106 -23q-20 -16 -25 -25q-8 -27 -10 -30q-20 -37 -24 -51q-11 -25 -13 -56z" />
<glyph unicode="&#xff;" horiz-adv-x="874" d="M66 707q-6 6 0 30q0 31 47 31q31 0 91 3t89 3q76 0 90 -20l18 -2q4 -8 5 -15q0 -4 -8.5 -12t-10.5 -8q-16 -10 -45 -35q4 -20 10 -53v-8q0 -43 22.5 -83t45.5 -77q53 -104 67 -158q20 -74 39 -92l2 -2l2 -2q23 25 43.5 82t25.5 65t38 95q27 68 27 96q0 6 3 30.5t3 36.5 q-2 18 -9.5 26.5t-21.5 25.5q-2 4 -2 17t-32 16t-32 20q0 2 -4 10t-4 16q0 20 29 37q8 4 24.5 -2t22.5 -6q25 0 78 -5t80 -5q14 0 41.5 4t42.5 4q39 0 55 -12q0 -2 2 -6v-7q0 -45 -41 -51q-55 -8 -72 -37q-8 -23 -26.5 -61.5t-55.5 -114.5q-10 -35 -34 -102 q-29 -51 -76 -156q-18 -59 -66 -170q-20 -23 -55 -71q-14 -33 -57 -95q-8 -29 -37 -77q-25 -25 -37 -35q-14 -23 -47 -66q-72 -82 -156 -84q-53 -2 -37 -4q-12 0 -20 5t-21 24q-20 16 -20 47v16q8 12 14 17q16 59 60 59q4 0 11 -3t11 -1q12 0 33.5 -3t32.5 -3q41 0 58 13 t36 52q41 29 82 166q-8 61 -135 264q-14 43 -33 103q-20 49 -42 99t-52 95q-14 27 -27 54q-18 33 -65 82zM193 1090q0 53 45 81.5t67 28.5q25 0 60 -29q47 -38 47 -81q0 -41 -53.5 -78t-63.5 -37q-53 0 -86 57q-16 29 -16 58zM571 1083q0 27 33 68q43 53 78 53q23 0 35 -14 t24 -31q2 -2 37 -24q17 -10 17 -41q0 -66 -41 -86q-61 -31 -72 -31q-45 0 -82 43q-29 43 -29 63z" />
<glyph unicode="&#x152;" horiz-adv-x="1961" d="M80 721q0 117 31 207q0 2 5 6t5 8q55 201 219 344q172 152 375 152q123 0 196 -8q31 -6 88 -13q31 0 91.5 5t85.5 5q80 2 225 -4q160 -6 227 -6q35 0 107.5 7.5t109.5 7.5q43 0 56 -48q-4 -43 -5 -184q0 2 7 -33q2 -12 -13 -20q2 -2 2 -31q-2 -6 -18 -4q-18 2 -23 0 l-16 14q-31 66 -37 74q-14 23 -63 64q-18 16 -68 45q-41 6 -125 12q-164 4 -252 -8q-12 -16 -20 -25q-10 -35 -10 -59v-99q4 -20 8 -59q-2 29 -2 -199q0 -6 6 -14t10 -6q8 -6 16 -21l9 -6l12 4q55 0 94 -10q2 0 28.5 3t28.5 3q31 2 78 2q35 0 76 30t59 67q0 2 41 37 q8 6 21 14h2q12 -12 18 -25l-6 -92q0 -8 2 -28.5t2 -30.5q0 -14 -3 -39t-3 -37q0 -14 2 -39v-39q0 -2 -8 -24.5t-8 -34t-8 -27.5l-11 -4h-8l-4 -4q-4 2 -8 12l-2 -2q-16 14 -47 103q-33 31 -103 41q-6 2 -112 8q-10 0 -47 4q-29 4 -47 4q-2 0 -29 6q-20 4 -25 0 q-4 0 -12 -14.5t-13 -16.5t-7 -37q0 -10 -3 -14q-6 -92 -6 -94q0 -20 7.5 -60t7.5 -59q0 -10 -4.5 -29.5t-4.5 -27.5q0 -29 9.5 -89.5t9.5 -88.5q0 -20 29.5 -46t35.5 -38q18 -2 80 -11q49 -6 80 -6q12 0 49 13q41 0 119 10q23 6 94.5 47t89.5 57q12 10 45 94q33 74 52 74 q4 0 6 -6q41 -4 41 -49q0 -31 -23 -88q-29 -72 -29.5 -82t-7.5 -55q-8 -51 -14 -58q-16 -61 -102 -63q-14 0 -41 7t-37 7q-51 -2 -152 -6q-43 0 -116 4q-86 4 -117 4q-33 0 -88 -4q-68 -4 -90 -4q-12 0 -35 3t-33 3q-33 0 -96.5 -8t-93.5 -8l-170 -2q-57 0 -170 34 q-41 10 -84 21.5t-72 38.5q-18 10 -55 41q-61 33 -135 127q-158 197 -156 473zM319 735q0 -78 15 -135q16 -66 16 -65q0 -41 27 -101q59 -131 69 -145q35 -57 119 -115q57 -39 68 -43q23 -12 82 -22q18 -4 53 -13q27 0 98.5 16.5t79.5 30.5q27 37 64 111q10 33 28.5 175 t18.5 183q0 16 -2 48t-2 49l-2 4q-4 -8 -4 252q0 12 3 38.5t3 40.5l-2 50q0 39 -21 88l-41 51q-29 25 -47 35q-6 2 -51 28q-117 33 -137 33q-80 -2 -121 -20q-27 -4 -78 -19q-66 -27 -134.5 -132t-80.5 -181q-20 -121 -21 -242z" />
<glyph unicode="&#x153;" horiz-adv-x="1511" d="M90 393q0 111 68 205q152 213 413 213q133 0 224 -61q31 -33 88 -97q20 23 51 60q82 55 115 71q61 27 135 27q100 0 196 -47q111 -51 142 -135q2 -6 14 -25t12 -33q0 -23 -26 -57q-6 -10 -19 -25q-27 -14 -233 -14q-29 0 -84.5 -5t-81.5 -5l-135 -12q-2 -16 -13.5 -44 t-11.5 -47q0 -72 17 -102q35 -66 147 -104q88 -29 182 -31q33 0 70 22q51 33 59 38t35 20.5t34 16.5t19 5l9 -4q6 -14 4 -24q0 -14 -13.5 -31.5t-25.5 -34.5q-20 -37 -27 -43q-20 -12 -41 -24q-4 -4 -12 -11.5t-31 -19.5q-98 -55 -199 -53q-33 0 -129 32q-33 10 -94 33 q-35 29 -69 57q-6 10 -21 31q-137 -158 -299 -158q-133 0 -194 19q-76 23 -170 100q-6 18 -54 84q-43 57 -43 88q0 18 -4 61.5t-4 63.5zM266 438q0 -6 4 -17t4 -20q0 -59 23 -141q29 -96 65.5 -122.5t53.5 -41.5q72 -47 112 -47q152 2 197 131q12 27 27 56q10 23 10 69 q0 18 4 54.5t4 52.5q0 100 -54 193t-145 120q-41 6 -51 4q-18 0 -36.5 -8t-26.5 -10q-66 -14 -88 -39q-27 -39 -54 -76q-6 -8 -12 -21q-2 -4 -10 -11t-10 -11q-16 -49 -17 -115zM975 575q0 -35 10 -43q39 0 127 3.5t129 3.5q53 0 105 30l4 11q2 10 -7.5 32.5t-17.5 28.5 q-18 39 -71.5 63.5t-102.5 24.5q-104 0 -154 -106q-23 -49 -22 -48z" />
<glyph unicode="&#x178;" horiz-adv-x="1202" d="M41 1389q2 33 63 32q23 0 65 2t62 2q29 0 84.5 -3t81.5 -3q14 0 42 3t40 3q49 0 53 -39q-6 0 3 -8q-27 -37 -74 -41q-10 0 -17 -8l-14 2q-4 -16 -14 -39q4 -12 17 -33.5t18 -33.5l10 -13q25 -47 65 -145q8 -20 25 -33q23 -18 27 -24q12 -27 38 -76q29 -41 82 -135 q18 -39 27 -39l2 -2q0 4 8 -29q10 14 29 33q45 37 90 135l141 246q20 33 43 65q25 45 21 72q0 10 -7.5 23.5t-9.5 17.5q-45 12 -122 53l-2 10q0 -2 6 35l12 11q10 6 33 6q18 0 55 -6.5t53 -6.5q31 0 89.5 7.5t86.5 7.5q63 0 80 -13l2 -30q-4 -27 -32.5 -40.5t-53.5 -25.5 l-2 -6q-39 -8 -94 -121q-29 -41 -80 -121q-31 -57 -92 -172q-31 -47 -88 -139q-20 -37 -74 -137q-29 -55 -28 -215q0 -16 6 -53t6 -58q0 -14 -3 -45t-3 -47q0 -78 61 -115q63 -29 127 -57q4 -6 8 -18q-8 -8 -11 -14.5t-19.5 -9.5t-48 -5t-46.5 -2q-29 0 -82 6t-77 6 q-47 0 -142.5 -5t-142.5 -5q-25 0 -29 18q-4 8 -4 13q0 37 79 51t89 67q2 8 8 26.5t6 35t7 47.5q8 41 8 199q0 111 -21 131l-2 -2q-4 10 -10 22q-8 27 -27 78q-14 29 -55 96q-47 78 -100 185q-16 27 -45 81q-8 23 -41 64t-43 59q-25 51 -90 142q-25 16 -66 49q-16 0 -37 12 l-6 19l-2 2v-2h-2zM459 1704q0 55 43 83t69 28q25 0 60 -29q47 -39 47 -82q0 -41 -53.5 -78t-63.5 -37q-53 0 -86 58q-16 29 -16 57zM838 1698q0 27 32 67q43 53 78 54q23 0 35 -14.5t25 -30.5q2 -2 36 -25q17 -10 17 -41q0 -66 -41 -86q-61 -31 -72 -31q-45 0 -82 43 q-29 43 -28 64z" />
<glyph unicode="&#x2c6;" horiz-adv-x="823" d="M102 944q0 20 122 176t149 176q16 12 47 17q33 0 58.5 -12.5t144 -173t120.5 -189.5q-2 -23 -34 -23q-27 0 -155 99.5t-138 99.5q-6 0 -131 -102.5t-144 -102.5q-12 0 -26.5 12.5t-12.5 22.5z" />
<glyph unicode="&#x2dc;" horiz-adv-x="823" d="M135 1018q0 76 46 138.5t120 62.5q49 0 135 -45h6q53 -33 138 -68q57 -2 84 47q-2 -2 -2 18q0 49 30 50q39 0 41 -33q2 -4 2 -14q0 -72 -49 -130.5t-119 -58.5q-45 0 -159.5 55.5t-128.5 55.5q-8 0 -23.5 -5.5t-24 -5.5t-16.5 -30l-12 -37q-8 -33 -29 -33h-4 q-35 0 -35 33z" />
<glyph unicode="&#x2000;" horiz-adv-x="998" />
<glyph unicode="&#x2001;" horiz-adv-x="1997" />
<glyph unicode="&#x2002;" horiz-adv-x="998" />
<glyph unicode="&#x2003;" horiz-adv-x="1997" />
<glyph unicode="&#x2004;" horiz-adv-x="665" />
<glyph unicode="&#x2005;" horiz-adv-x="499" />
<glyph unicode="&#x2006;" horiz-adv-x="332" />
<glyph unicode="&#x2007;" horiz-adv-x="332" />
<glyph unicode="&#x2008;" horiz-adv-x="249" />
<glyph unicode="&#x2009;" horiz-adv-x="399" />
<glyph unicode="&#x200a;" horiz-adv-x="110" />
<glyph unicode="&#x2010;" horiz-adv-x="724" d="M59 346q0 8 38 70.5t46 66.5q12 6 43 0q41 0 123 6.5t121 6.5q18 0 55 -2t56 -2q25 0 53.5 15t44.5 15q29 1 29 -30q2 -66 -72 -140q-6 -12 -27 -33q-6 -2 -24 -2q-12 0 -38 5.5t-40 5.5q-27 0 -80 -5.5t-80 -5.5q-16 0 -51 3.5t-53 3.5t-49 -10.5t-45 -10.5 q-49 -2 -50 43z" />
<glyph unicode="&#x2011;" horiz-adv-x="724" d="M59 346q0 8 38 70.5t46 66.5q12 6 43 0q41 0 123 6.5t121 6.5q18 0 55 -2t56 -2q25 0 53.5 15t44.5 15q29 1 29 -30q2 -66 -72 -140q-6 -12 -27 -33q-6 -2 -24 -2q-12 0 -38 5.5t-40 5.5q-27 0 -80 -5.5t-80 -5.5q-16 0 -51 3.5t-53 3.5t-49 -10.5t-45 -10.5 q-49 -2 -50 43z" />
<glyph unicode="&#x2012;" horiz-adv-x="724" d="M59 346q0 8 38 70.5t46 66.5q12 6 43 0q41 0 123 6.5t121 6.5q18 0 55 -2t56 -2q25 0 53.5 15t44.5 15q29 1 29 -30q2 -66 -72 -140q-6 -12 -27 -33q-6 -2 -24 -2q-12 0 -38 5.5t-40 5.5q-27 0 -80 -5.5t-80 -5.5q-16 0 -51 3.5t-53 3.5t-49 -10.5t-45 -10.5 q-49 -2 -50 43z" />
<glyph unicode="&#x2013;" horiz-adv-x="1531" d="M96 496q0 23 21.5 62.5t42.5 45.5q14 2 39 6q102 6 293 6q203 0 292 5q41 2 418 2q143 0 189 6q2 -10 8 -38t6 -32q-2 -20 -174 -63q-8 -2 -107 -2q-145 0 -436 -12.5t-436 -12.5q-49 0 -90 10q-66 8 -66 17z" />
<glyph unicode="&#x2014;" horiz-adv-x="1947" d="M113 371q0 27 47 59q39 27 71 35q2 0 48 2q244 2 733 12q252 -4 755 8q4 -29 15 -61q14 -14 14 -12q0 -18 -90 -41q-82 -23 -113 -23q-20 0 -61 2h-64q-184 0 -577 -12q-379 -10 -578 -10q-201 0 -200 41z" />
<glyph unicode="&#x2018;" horiz-adv-x="483" d="M90 1137q20 78 45 100q63 57 129 115q66 66 109 69l28 -10q0 -2 -14 -74v-2q0 -4 -53 -56t-53 -97q0 -18 7 -33.5t34 -30.5q20 -12 20 -33q-2 -68 -12 -92q-27 -61 -115 -63q-49 0 -70 16q-25 10 -28 45l-11 8q-31 86 -16 138z" />
<glyph unicode="&#x2019;" horiz-adv-x="483" d="M90 940q0 2 14 74v2q0 4 53.5 56t53.5 97q0 18 -8 37q-6 12 -31 25.5t-25 34.5q0 63 13 92q27 61 116 63q51 0 68 -16q20 -8 31 -45l8 -8q25 -72 25 -95q-1 -20 -7 -43q-20 -78 -45 -100q-121 -104 -129 -115q-63 -66 -110 -69z" />
<glyph unicode="&#x201a;" horiz-adv-x="483" d="M70 -248q0 2 14 74v2q0 4 53 56.5t53 97.5q0 18 -8 36q-6 12 -30.5 25.5t-24.5 34.5q0 63 12 92q27 61 117 63q51 0 68 -16q20 -8 30 -45l8 -8q25 -72 25 -94q0 -20 -6 -43q-20 -78 -45 -101q-121 -104 -129 -114q-63 -66 -111 -70z" />
<glyph unicode="&#x201c;" horiz-adv-x="761" d="M70 1137q20 78 45 100q63 57 129 115q66 66 108 69l29 -10q0 -2 -14 -74v-2q0 -4 -53.5 -56t-53.5 -97q0 -18 7 -33.5t34 -30.5q20 -12 21 -33q-2 -68 -13 -92q-27 -61 -114 -63q-49 0 -70 16q-25 10 -29 45l-10 8q-31 86 -16 138zM418 1137q20 78 45 100q63 57 129 115 q66 66 108 69l29 -10q0 -2 -14 -74v-2q0 -4 -53.5 -56t-53.5 -97q0 -18 7.5 -33.5t33.5 -30.5q20 -12 21 -33q-2 -68 -13 -92q-27 -61 -114 -63q-49 0 -70 16q-25 10 -29 45l-10 8q-31 86 -16 138z" />
<glyph unicode="&#x201d;" horiz-adv-x="813" d="M70 940q0 2 14 74v2q0 4 53 56t53 97q0 18 -8 37q-6 12 -30.5 25.5t-24.5 34.5q0 63 12 92q27 61 117 63q51 0 68 -16q20 -8 30 -45l8 -8q25 -72 25 -95q0 -20 -6 -43q-20 -78 -45 -100q-121 -104 -129 -115q-63 -66 -111 -69zM416 940q0 2 14 74v2q0 4 53.5 56t53.5 97 q0 18 -9 37q-6 12 -30.5 25.5t-24.5 34.5q0 63 12 92q27 61 117 63q51 0 68 -16q20 -8 30 -45l9 -8q25 -72 24 -95q0 -20 -6 -43q-20 -78 -45 -100q-121 -104 -129 -115q-63 -66 -111 -69z" />
<glyph unicode="&#x201e;" horiz-adv-x="782" d="M70 -248q0 2 14 74v2q0 4 53 56.5t53 97.5q0 18 -8 36q-6 12 -30.5 25.5t-24.5 34.5q0 63 12 92q27 61 117 63q51 0 68 -16q20 -8 30 -45l8 -8q25 -72 25 -94q0 -20 -6 -43q-20 -78 -45 -101q-121 -104 -129 -114q-63 -66 -111 -70zM416 -248q0 2 14 74v2q0 4 53.5 56.5 t53.5 97.5q0 18 -9 36q-6 12 -30.5 25.5t-24.5 34.5q0 63 12 92q27 61 117 63q51 0 68 -16q20 -8 30 -45l9 -8q25 -72 24 -94q0 -20 -6 -43q-20 -78 -45 -101q-121 -104 -129 -114q-63 -66 -111 -70z" />
<glyph unicode="&#x2022;" horiz-adv-x="827" d="M137 545q0 106 76 186t184 80q199 -2 265 -186q18 -54 18 -74q0 -115 -77 -198t-189 -83q-117 0 -197 79t-80 196z" />
<glyph unicode="&#x2026;" horiz-adv-x="1689" d="M158 117q0 45 48 80.5t97 35.5q41 0 77 -50t36 -91l-2 -12q-6 -14 -23 -43q-14 -20 -54 -38.5t-67 -18.5q-41 0 -76.5 47t-35.5 90zM717 121q0 33 47 72.5t88 39.5q49 0 70.5 -32.5t42.5 -67.5q8 -18 8 -57q0 -29 -50.5 -62.5t-84.5 -33.5q-45 0 -83 48t-38 93zM1276 117 q0 33 44 72.5t79 39.5q45 0 87 -33.5t42 -76.5q0 -6 -2 -22.5t-2 -24.5q-12 -25 -17 -37q-4 -2 -10 -15q-31 -37 -98 -36q-55 0 -89 37.5t-34 95.5z" />
<glyph unicode="&#x202f;" horiz-adv-x="399" />
<glyph unicode="&#x2039;" horiz-adv-x="632" d="M133 494q0 41 72 102q0 20 80 74v4q59 61 186 162q4 6 10 6l8 -4l23 -25q-4 -33 -88 -151q-92 -127 -107 -168q23 -37 70 -111q37 -49 72 -98q41 -60 57 -109q-4 -37 -37 -37q-12 0 -63 49q-43 41 -131 123q-18 31 -62 82q-18 18 -57 56q-14 12 -31 34q-2 2 -2 11z" />
<glyph unicode="&#x203a;" horiz-adv-x="632" d="M123 178q20 51 63 109q68 94 70 98q25 37 72 111q-55 86 -119 206q-23 43 -72 105l-2 12l33 23q8 -2 8 0q8 0 46 -34t40 -38q33 -33 98 -96q154 -125 152 -174q0 -23 -45 -64l-59 -55q-18 -20 -54 -64q-23 -27 -100 -98q-84 -78 -92 -76q-35 0 -39 35z" />
<glyph unicode="&#x205f;" horiz-adv-x="499" />
<glyph unicode="&#x20ac;" d="M31 735q0 20 2 47q6 12 129 41q16 4 43 4q4 35 28 134q23 86 60 161q6 10 18.5 33t38.5 64q23 31 66 77.5t153 94.5q92 39 215 39q14 0 34 5t38 5q14 -6 45 -21q53 -10 65.5 -32.5t12.5 -71.5q-2 -55 -2 -58q14 -27 16 -49q4 -14 2 -24q0 -2 4.5 -20.5t4.5 -22.5 q2 -45 2 -113l-33 -2q-8 0 -9 23.5t-12 42.5q-14 27 -59 94q-51 76 -62 82q-39 47 -122 47q-12 0 -50 -10q-61 -16 -75 -31q-29 -33 -58 -64q-8 -4 -22 -20q-37 -37 -47 -86q2 -20 -4 -66q-2 -23 -9 -65q-16 -47 -36 -144q319 12 372 13q33 0 60 -6q43 -6 41 -13 q-4 -14 -25.5 -40.5t-34 -29.5t-30.5 -5q-55 -4 -121 -5h-131q-2 0 -136 -4v-20v-82q219 12 285 12q33 0 60 -6q42 -6 40 -10q-4 -16 -25.5 -43t-33.5 -30t-31 -5q-86 0 -290 -6q10 -152 71 -262q68 -119 70 -121q31 -29 145 -35q45 -2 39 -4q59 -6 74 16q8 4 18 17 q2 10 17.5 14t17.5 12q4 2 12.5 2t20.5 27t20 27q2 0 14.5 26.5t14.5 22.5q31 14 49 -88q-2 -33 -24 -60q-12 -25 -35 -57q-66 -111 -299 -111q-119 0 -201 93q-27 18 -74 69q-55 86 -84 170q-20 43 -49 137q-8 33 -22 103h-35q-92 0 -127 -4q0 20 2 47q6 12 129 43 q10 2 27 2q0 35 2 104h-43q-92 0 -127 -4z" />
<glyph unicode="&#x2122;" horiz-adv-x="1914" d="M33 1167l14 199h688l15 -199l-35 -2q-8 143 -176 148l-76 2v-608q0 -57 21.5 -76t82.5 -21v-37h-350v37q59 4 80.5 21.5t21.5 73.5v610l-75 -2q-162 -4 -176 -148zM815 1329v37h258l273 -580l262 580h254v-37q-59 0 -80 -14q-27 -18 -27 -78v-530q0 -59 21.5 -77 t85.5 -20v-37h-363v37q66 2 89.5 19.5t23.5 75.5v528l-291 -660h-35l-299 639l-2 -505q0 -55 17.5 -76t70.5 -21h29v-37h-285v37q59 0 84 17.5t25 77.5v520q0 72 -21.5 88t-89.5 16z" />
<glyph unicode="&#x25fc;" horiz-adv-x="778" d="M0 0v778h778v-778h-778z" />
</font>
</defs>
</svg>
