<?xml version="1.0" standalone="no"?>
<!DOCTYPE svg PUBLIC "-//W3C//DTD SVG 1.1//EN" "http://www.w3.org/Graphics/SVG/1.1/DTD/svg11.dtd" >
<svg xmlns="http://www.w3.org/2000/svg">
<metadata></metadata>
<defs>
<font id="aleobold" horiz-adv-x="1661" >
<font-face units-per-em="2048" ascent="1649" descent="-399" />
<missing-glyph horiz-adv-x="473" />
<glyph unicode="&#xfb01;" horiz-adv-x="1291" d="M36 938v103h157v34q0 98 31 179q31 82 97 143q65 60 162 94q100 35 233 35q23 0 37 -1q4 0 9 -1h2h6q10 -1 21 -2t13 -1q37 -4 67 -12q111 -24 189 -81q13 -10 21 -19q20 -22 31 -46q14 -31 14 -64q0 -31 -14 -61q-15 -31 -35 -50q-24 -22 -52 -35q-29 -13 -63 -13 q-35 0 -62 13q-30 14 -51 35q-20 20 -34 50q-13 27 -13 61q0 6 2 24q-92 26 -188 0q-63 -18 -101 -50q-42 -34 -60 -86q-18 -51 -18 -120v-26h651v-838q15 -3 38 -6.5t26 -4.5q8 -1 15 -2t13 -2t8 -1q12 -2 16 -3q51 -10 51 -64v-120h-166h-253h-156v120q0 53 52 64 q5 2 13 3l30 5q7 1 27 4.5t34 6.5v658h-391v-658q15 -3 38 -6.5t26 -4.5q8 -1 15 -2t13 -2t8 -1q12 -2 16 -3q51 -10 51 -64v-120h-167h-252h-155v120q0 54 51 64q5 2 13 3q2 0 7 1t10.5 2t12.5 2t27 4.5t34 6.5v657l-92 14q-27 4 -47 21q-18 15 -18 43z" />
<glyph unicode="&#xfb02;" horiz-adv-x="1363" d="M36 938v103h157v44q0 87 26 161q25 76 80 135q54 60 137 95q80 35 198 35q92 0 176 -6q83 -6 167 -6h142v-1182q0 -39 7 -68q7 -26 23 -45q18 -18 43 -25q24 -7 63 -7q38 0 52 -6q13 -4 16 -27l8 -136q-32 -11 -62 -15q-28 -4 -67 -4q-94 0 -157 25q-62 27 -103 72 q-39 47 -57 106q-18 60 -18 129v1010h-193q-117 0 -176 -62q-61 -64 -61 -180v-43h250v-180h-242v-659q15 -3 38 -6.5t26 -4.5q8 -1 15 -2t13 -2t8 -1q11 -2 15 -3q52 -11 52 -64v-120h-167h-252h-156v120q0 53 52 64q5 2 13 3q2 0 7 1t10.5 2t12.5 2t27 4.5t34 6.5v658 l-92 15q-28 4 -47 20q-18 15 -18 43z" />
<glyph horiz-adv-x="0" />
<glyph unicode="&#xd;" horiz-adv-x="153" />
<glyph horiz-adv-x="153" />
<glyph horiz-adv-x="153" />
<glyph unicode=" "  horiz-adv-x="473" />
<glyph unicode="&#x09;" horiz-adv-x="473" />
<glyph unicode="&#xa0;" horiz-adv-x="473" />
<glyph unicode="!" horiz-adv-x="381" d="M36 139q0 33 12 61q12 29 32 49q21 21 50 33q28 12 61 12q32 0 61 -12q28 -12 49 -33t33 -49t12 -61t-12 -61q-11 -26 -33 -48q-21 -21 -49 -33q-26 -11 -61 -11t-61 11q-29 12 -50 33q-20 20 -32 48t-12 61zM75 895v586h238v-586q0 -93 -9 -183q-9 -88 -24 -190h-171 q-18 122 -25 190q-9 90 -9 183z" />
<glyph unicode="&#x22;" horiz-adv-x="693" d="M48 1186v295h220v-295l-23 -160q-8 -47 -26 -69q-19 -24 -62 -24q-38 0 -59 24t-27 69zM425 1186v295h220v-295l-23 -160q-8 -45 -27 -69t-61 -24q-38 0 -59 24q-22 25 -28 69z" />
<glyph unicode="#" horiz-adv-x="1188" d="M35 486q0 15 3 33l13 81h195l53 283h-219l19 105q7 38 32 58q23 19 80 19h114l63 330q7 40 38 63t70 23h114l-78 -416h209l79 416h113q35 0 58 -21t23 -52q0 -12 -1 -15l-64 -328h208l-19 -106q-7 -37 -33 -57q-25 -19 -79 -19h-102l-53 -283h146q33 0 49 -16 q17 -17 17 -54q0 -14 -3 -32l-12 -80h-222l-79 -418h-116q-30 0 -53 25t-23 60q0 1 0.5 5t0.5 5q0 3 2 9l60 314h-210l-59 -326q-9 -49 -42 -70q-35 -22 -73 -22h-112l78 418h-118q-33 0 -50 16t-17 52zM454 600h210l52 283h-209z" />
<glyph unicode="$" horiz-adv-x="1095" d="M27 178l77 116q11 16 28 25q18 10 35 10q23 0 48 -16l25.5 -17t32.5 -21q40 -26 75 -43q40 -20 99 -31l39 458q-63 18 -143 49q-69 26 -128 73q-57 45 -92 115t-35 174q0 80 31 152q33 76 91 133q61 59 146 96q90 39 200 43l11 129q1 23 21 44q18 20 48 20h93l-17 -202 q106 -18 187 -62q77 -42 137 -99l-61 -93q-15 -21 -29 -31t-35 -10q-13 0 -36 10q-14 6 -48 23q-16 8 -60 28q-33 15 -73 24l-36 -424q69 -21 146 -50q72 -27 130 -70q59 -44 94 -107q36 -65 36 -160q0 -94 -32 -179q-31 -83 -92 -147q-60 -63 -150 -104q-88 -40 -204 -48 l-13 -151q-1 -23 -20 -43q-18 -20 -48 -20h-93l18 219q-123 17 -225 65q-103 49 -178 122zM327 1095q0 -40 13 -69q14 -32 37 -53q25 -24 57 -41q27 -15 72 -32l32 379q-56 -7 -97 -24q-36 -15 -65 -42q-26 -25 -38 -54q-11 -27 -11 -64zM604 198q110 15 165 73t55 154 q0 38 -14 68q-15 32 -38 52q-27 24 -59 39q-30 14 -74 29z" />
<glyph unicode="%" horiz-adv-x="1589" d="M36 1122q0 88 25 156t72 118q46 49 108 74q64 26 136 26q73 0 137 -26q61 -25 109 -74q44 -46 71 -118q26 -70 26 -156q0 -85 -28 -151q-27 -65 -76 -115q-48 -49 -109 -74q-62 -25 -130 -25q-74 0 -136 25t-108 74q-48 51 -72 115q-25 66 -25 151zM113 0l1099 1441 q11 14 31 27q19 13 51 13h184l-1100 -1443q-12 -17 -31 -27q-20 -11 -46 -11h-188zM232 1122q0 -54 11 -95q10 -38 30 -62q19 -24 46 -34q26 -10 58 -10t58 10q28 11 47 34q19 24 31 62q11 36 11 95q0 63 -11 100q-12 41 -31 64q-20 24 -47 35q-28 11 -58 11t-58 -11 q-26 -10 -46 -35q-20 -24 -30 -64q-11 -42 -11 -100zM871 348q0 86 26 156t71 118q46 49 108 74q64 26 136 26q73 0 137 -26q61 -25 109 -74q46 -47 72 -118q25 -68 25 -156q0 -85 -28 -151q-29 -68 -75 -116q-45 -47 -110 -73q-64 -26 -130 -26q-72 0 -136 26t-108 73 q-46 49 -71 116q-26 69 -26 151zM1068 348q0 -55 11 -96q12 -40 31 -63q18 -23 45 -33q28 -11 57 -11q30 0 58 11q30 11 47 33q20 25 32 63q12 39 12 96q0 58 -12 99q-12 40 -32 65q-20 24 -47 35q-28 11 -58 11q-29 0 -57 -11q-24 -9 -45 -35q-18 -23 -31 -65 q-11 -37 -11 -99z" />
<glyph unicode="&#x26;" horiz-adv-x="1466" d="M35 408q0 70 22 130q23 63 63 115q41 55 95 97q56 44 120 73q-55 78 -80 150t-25 146q0 76 29 146q29 71 81 120q56 53 132 82q78 30 176 30q88 0 161 -28q72 -28 122 -73q52 -48 80 -106q31 -65 35 -123l-161 -33q-2 -1 -7 -1h-7q-17 0 -31 9q-15 10 -22 30 q-10 30 -23 51q-16 26 -35 42q-22 19 -48 29q-28 11 -64 11q-42 0 -77 -15q-33 -14 -57 -40q-24 -25 -36 -59q-12 -33 -12 -70q0 -26 7 -59q6 -28 21 -57q17 -32 37 -59q24 -32 57 -65l393 -409q32 59 54 136q21 72 27 146q1 23 15 38q13 14 37 14h159q-1 -135 -39 -258 q-36 -119 -109 -226l311 -322h-248q-14 0 -34 2q-14 1 -29 8q-12 5 -25 15q-16 12 -26 23l-102 106q-100 -80 -219 -125q-120 -45 -260 -45q-84 0 -168 29q-83 29 -147 84q-65 56 -104 134t-39 177zM292 428q0 -57 19 -101q20 -46 54 -77q36 -32 78 -48q46 -17 95 -17 q89 0 164 29t136 78l-389 399q-81 -52 -120 -120q-37 -65 -37 -143z" />
<glyph unicode="'" horiz-adv-x="316" d="M48 1186v295h220v-295l-23 -160q-8 -47 -26 -69q-19 -24 -62 -24q-38 0 -59 24t-27 69z" />
<glyph unicode="(" horiz-adv-x="495" d="M37 642q0 132 16 251q19 138 49 244q34 120 87 237t129 234l113 -68q14 -7 25 -21q10 -13 10 -32q0 -20 -13 -46q-95 -179 -146 -384q-51 -204 -51 -415t51 -415q50 -200 147 -383q5 -10 9 -24q3 -12 3 -21q0 -20 -10 -33q-11 -14 -25 -21l-113 -69q-77 118 -129 235 q-54 121 -87 237q-31 107 -49 243q-16 119 -16 251z" />
<glyph unicode=")" horiz-adv-x="495" d="M30 -201q0 13 2 21q3 11 10 24q95 180 146 383q52 208 52 415t-52 415q-52 209 -145 384q-13 26 -13 46q0 19 10 32q11 14 25 21l112 68q77 -117 129 -234t87 -237q32 -113 50 -244q16 -119 16 -251t-16 -251q-17 -130 -50 -243q-33 -116 -87 -237q-52 -117 -129 -235 l-112 69q-14 7 -25 21q-10 13 -10 33z" />
<glyph unicode="*" horiz-adv-x="741" d="M40 1081l163 95q12 8 36 18q16 7 37 10q-16 1 -37 10q-16 7 -36 20l-163 95l59 103l163 -97q16 -11 33 -23q17 -13 28 -26q-7 16 -10 37q-3 19 -3 40v189h121v-187q0 -28 -2 -41q-3 -22 -10 -38q12 14 26 26q2 2 34 23l162 95l60 -103l-162 -93q-14 -10 -37 -19 q-20 -8 -37 -11q36 -6 74 -28l162 -96l-59 -102l-163 95q-31 21 -34 23q-19 16 -27 25q13 -32 13 -75v-189h-121v187q0 20 3 40q3 19 9 37q-8 -9 -27 -25q-8 -6 -33 -23l-162 -94z" />
<glyph unicode="+" horiz-adv-x="1083" d="M42 594v187h396v420h205v-420h398v-187h-398v-422h-205v422h-396z" />
<glyph unicode="," horiz-adv-x="405" d="M52 156q0 26 11 53q10 24 30 44q19 19 47 30t61 11q37 0 67 -14q28 -13 48 -38t29 -55q9 -31 9 -66q0 -50 -15 -104q-16 -56 -43 -108q-29 -55 -71 -106q-41 -50 -96 -94l-44 40q-18 15 -18 38q0 9 5 18q7 12 14 19q6 6 28 30q10 11 32 41q19 26 31 50q14 28 20 58 q-32 0 -59 12q-26 12 -45 32q-19 21 -30 48q-11 28 -11 61z" />
<glyph unicode="-" horiz-adv-x="648" d="M58 513v211h531v-211h-531z" />
<glyph unicode="." horiz-adv-x="415" d="M54 139q0 33 12 61t33 49t49 33q29 12 62 12q32 0 60 -12t49 -33t33 -49q13 -31 13 -61t-13 -61q-11 -26 -33 -48q-21 -21 -49 -33q-26 -11 -60 -11q-36 0 -62 11q-28 12 -49 33q-22 22 -33 48q-12 28 -12 61z" />
<glyph unicode="/" horiz-adv-x="893" d="M30 -97l598 1530q18 44 50 66q34 23 79 23h107l-593 -1525q-9 -24 -23 -41q-13 -16 -33 -29q-18 -12 -39 -18t-40 -6h-106z" />
<glyph unicode="0" horiz-adv-x="1167" d="M41 740q0 193 41 337q40 140 114 236q73 95 171 139q99 45 215 45q114 0 215 -45q98 -44 173 -139q72 -92 115 -236q41 -139 41 -337q0 -197 -41 -336q-43 -144 -115 -236q-75 -95 -173 -139q-101 -45 -215 -45q-116 0 -215 45q-98 44 -171 139q-74 96 -114 236 q-41 144 -41 336zM302 740q0 -159 23 -266q22 -104 62 -168q38 -61 90 -87q50 -25 105 -25q56 0 106 25q54 27 91 87q39 63 63 168q23 101 23 266q0 166 -23 267q-24 105 -63 168q-37 60 -91 87q-50 25 -106 25q-55 0 -105 -25q-52 -26 -90 -87q-40 -64 -62 -168 q-23 -107 -23 -267z" />
<glyph unicode="1" horiz-adv-x="990" d="M31 1099l451 384h208v-1293q199 -16 225 -20q41 -9 41 -52v-118h-402h-15h-402v118q0 43 42 52q38 5 258 22v861q0 49 3 105l-213 -178q-11 -10 -27 -15q-12 -4 -27 -4q-22 0 -37 8q-19 10 -25 20z" />
<glyph unicode="2" horiz-adv-x="1110" d="M35 0v84q0 25 11 53t34 51l449 451q47 47 101 110q46 54 75 103t46 104q16 51 16 111q0 53 -15 94t-44 68q-28 27 -69 41q-40 14 -88 14q-92 0 -150 -46q-59 -47 -83 -124q-13 -41 -33 -56q-23 -17 -58 -17q-15 0 -33 3l-134 24q14 102 60 187q42 78 110 134 q66 54 151 81t184 27q103 0 188 -30q84 -29 145 -86q60 -55 94 -133q34 -77 34 -173q0 -82 -24 -151q-25 -72 -65 -134q-39 -61 -94 -122q-71 -77 -114 -121l-334 -341q45 14 97 22q43 7 90 7h327q6 75 8 92q8 38 48 38h109v-143v-222h-23h-60h-956z" />
<glyph unicode="3" horiz-adv-x="1091" d="M32 376l111 46q29 12 59 12q28 0 47 -11q21 -12 33 -33q21 -41 40 -71q21 -32 53 -61q31 -28 72 -44q43 -17 99 -17q64 0 112 21q50 22 81 54t48 76q16 41 16 83q0 51 -11 97q-12 44 -48 74q-37 31 -102 48q-68 18 -180 18v180q96 2 154 17q60 16 98 46q35 28 51 70 q14 38 14 90q0 105 -57 159t-157 54q-89 0 -149 -48q-59 -47 -83 -122q-12 -39 -34 -56t-56 -17q-17 0 -35 3l-133 24q15 105 59 187q42 78 110 134q66 54 152 81q85 27 184 27q100 0 184 -29q80 -28 141 -81q58 -50 90 -121q31 -68 31 -151q0 -72 -16 -124q-17 -54 -46 -94 q-30 -41 -74 -68q-48 -30 -98 -46q131 -41 198 -128q66 -85 66 -216q0 -108 -41 -195q-39 -82 -111 -143q-68 -57 -161 -88q-88 -29 -194 -29q-114 0 -195 25q-80 25 -144 76q-60 48 -105 123q-41 69 -73 168z" />
<glyph unicode="4" horiz-adv-x="1197" d="M34 545l701 937h240v-924h186v-146q0 -22 -13 -36q-14 -15 -39 -15h-134v-361h-221v361h-625q-26 0 -45 16q-21 18 -25 40zM303 558h451v484q0 21 2 71q1 25 7 79z" />
<glyph unicode="5" horiz-adv-x="1054" d="M32 158l78 107q24 35 65 35q27 0 52 -16q19 -12 61 -36q34 -20 81 -36q45 -16 111 -16q72 0 123 22q53 23 89 63q34 39 53 96q18 56 18 122q0 122 -70 189q-71 68 -207 68q-108 0 -216 -39l-157 45l123 719h731v-108q0 -53 -35 -88q-34 -34 -114 -34h-407l-54 -309 q101 21 184 21q115 0 205 -35q88 -34 149 -97q62 -64 91 -143q31 -85 31 -178q0 -118 -42 -215t-115 -166q-74 -70 -174 -107q-102 -38 -220 -38q-73 0 -132 14q-65 15 -117 38q-53 23 -102 56q-43 29 -83 66z" />
<glyph unicode="6" horiz-adv-x="1108" d="M38 504q0 104 42 214q41 107 132 229l353 474q18 24 54 42t81 18h226l-440 -538q-3 -4 -12.5 -15.5t-14.5 -17.5q-13 -14 -25 -31q44 21 93 33q54 13 108 13q81 0 163 -28q79 -27 140 -83q58 -54 97 -139q37 -81 37 -194q0 -103 -38 -194q-38 -92 -106 -158 q-68 -67 -166 -106t-213 -39q-117 0 -213 38q-95 38 -161 105t-102 164q-35 93 -35 213zM281 465q0 -63 16 -112q16 -48 51 -87q34 -37 82 -56q51 -20 114 -20q60 0 111 21q53 22 87 57q36 38 57 87q20 47 20 108q0 64 -19 114q-19 49 -56 86q-36 36 -86 54t-110 18 q-63 0 -110 -20t-84 -57q-33 -33 -54 -86q-19 -48 -19 -107z" />
<glyph unicode="7" horiz-adv-x="1101" d="M41 1085v220v2v3v171h1024v-110q0 -48 -11 -79q-10 -30 -21 -51l-560 -1155q-18 -36 -49 -61t-86 -25h-183l573 1132q36 69 80 119h-597q-10 -105 -13 -128q-8 -38 -48 -38h-109z" />
<glyph unicode="8" horiz-adv-x="1097" d="M35 416q0 132 64 221q66 92 201 135q-108 45 -162 128q-54 82 -54 200q0 85 34 156q35 74 96 127q62 54 147 84q86 30 188 30t188 -30q85 -30 147 -84q59 -52 95 -127q35 -73 35 -156q0 -116 -55 -200t-161 -128q134 -43 200 -135q65 -91 65 -221q0 -100 -37 -178 q-38 -80 -105 -137q-67 -56 -163 -87q-94 -30 -209 -30q-116 0 -210 30q-95 30 -162 87t-105 137q-37 78 -37 178zM295 420q0 -53 16 -95q17 -46 49 -76q34 -33 79 -50q47 -18 110 -18t109 18t80 50q30 29 48 76q17 45 17 95q0 121 -68 184q-67 63 -186 63t-187 -63 q-67 -63 -67 -184zM331 1096q0 -42 11 -86q10 -41 36 -74q24 -31 67 -51t104 -20q60 0 103 20q45 21 68 51q26 33 36 74q11 44 11 86q0 44 -13 80q-14 40 -40 67t-68 46q-40 18 -97 18t-97 -18q-44 -20 -69 -46q-24 -25 -39 -67q-13 -36 -13 -80z" />
<glyph unicode="9" horiz-adv-x="1072" d="M37 1017q0 100 37 186q38 88 103 153q64 64 160 103q94 38 206 38q114 0 204 -36q92 -37 155 -100t98 -155q34 -89 34 -197q0 -69 -12 -130q-14 -70 -33 -119q-20 -50 -53 -110q-24 -43 -69 -108l-339 -484q-19 -26 -51 -41q-36 -17 -79 -17h-232l460 574q12 14 32 42 q5 7 15 20.5t15 20.5q-49 -32 -113 -49q-63 -17 -129 -17q-79 0 -150 26q-74 27 -132 81q-57 53 -92 133q-35 81 -35 186zM290 1036q0 -125 64 -189q65 -65 182 -65q60 0 109 20q48 19 80 53q34 36 50 80q17 48 17 99q0 57 -19 108q-18 49 -52 81q-33 32 -80 50 q-44 17 -102 17q-59 0 -104 -19q-47 -20 -78 -52q-31 -33 -50 -81q-17 -44 -17 -102z" />
<glyph unicode=":" horiz-adv-x="402" d="M47 139q0 33 12 61t33 49t49 33t62 12q31 0 60 -12q28 -12 49 -33t33 -49t12 -61t-12 -61q-11 -26 -33 -48q-21 -21 -49 -33q-26 -11 -60 -11q-36 0 -62 11q-28 12 -49 33q-22 22 -33 48q-12 28 -12 61zM47 869q0 33 12 61t33 49t49 33t62 12q31 0 60 -12q28 -12 49 -33 t33 -49t12 -61q0 -32 -12 -61q-11 -26 -33 -48q-20 -20 -49 -32t-60 -12q-33 0 -62 12t-49 32q-22 22 -33 48q-12 29 -12 61z" />
<glyph unicode=";" horiz-adv-x="399" d="M45 869q0 33 12 61t33 49t49 33t62 12q31 0 60 -12q28 -12 49 -33t33 -49t12 -61q0 -32 -12 -61q-11 -26 -33 -48q-20 -20 -49 -32t-60 -12q-34 0 -62 12q-29 12 -49 32q-22 22 -33 48q-12 29 -12 61zM52 156q0 26 11 53q10 24 30 44q19 19 47 30t61 11q37 0 67 -14 q28 -13 48 -38t29 -55q9 -31 9 -66q0 -50 -15 -104q-16 -56 -43 -108q-29 -55 -71 -106q-41 -50 -96 -94l-44 40q-18 15 -18 38q0 9 5 18q7 12 14 19q6 6 28 30q10 11 32 41q19 26 31 50q14 28 20 58q-32 0 -59 12q-26 12 -45 32q-19 21 -30 48q-11 28 -11 61z" />
<glyph unicode="&#x3c;" horiz-adv-x="901" d="M42 639v102l811 423v-180q0 -21 -10 -37q-11 -18 -34 -29l-372 -191q-25 -13 -49 -21q-19 -7 -56 -16q37 -9 56 -16q24 -8 49 -21l372 -191q23 -11 34 -29q10 -16 10 -38v-180z" />
<glyph unicode="=" horiz-adv-x="1025" d="M59 414v188h908v-188h-908zM59 775v188h908v-188h-908z" />
<glyph unicode="&#x3e;" horiz-adv-x="903" d="M49 215v180q0 22 10 38q11 18 34 29l372 191q43 21 105 37q-33 8 -55 16q-27 10 -50 21l-372 191q-23 11 -34 29q-10 16 -10 37v180l811 -423v-102z" />
<glyph unicode="?" horiz-adv-x="859" d="M33 1347q40 35 76 58q42 27 90 48q45 19 104 32q57 12 122 12q89 0 162 -24q70 -23 126 -71q52 -45 81 -110q28 -63 28 -144q0 -79 -22 -135q-22 -57 -57 -99q-36 -44 -74 -72q-15 -11 -40.5 -30.5t-35.5 -27.5q-36 -27 -62 -53q-27 -27 -31 -59l-24 -150h-173l-17 167 q-1 3 -1 9v9q0 46 22 78q23 34 57 62q53 44 72 57q37 26 73 60q33 32 56 73t23 97q0 36 -14 66q-14 29 -38 50q-22 19 -59 32q-32 11 -75 11q-62 0 -98 -12q-45 -15 -69 -29q-37 -22 -48 -29q-19 -13 -34 -13q-37 0 -54 31zM226 139q0 33 12 61t33 49t50 33t61 12t60 -12 q29 -12 50 -33q20 -20 32 -49q13 -31 13 -61t-13 -61q-12 -28 -32 -48q-21 -21 -50 -33q-26 -11 -60 -11q-35 0 -61 11q-29 12 -50 33q-22 22 -33 48q-12 29 -12 61z" />
<glyph unicode="@" horiz-adv-x="1630" d="M38 597q0 111 28 213q30 108 80 194q52 89 126 166q72 75 164 130q93 56 195 85q105 30 220 30q145 0 279 -48q130 -47 237 -140q101 -88 164 -221q61 -129 61 -294q0 -113 -32 -206q-34 -98 -90 -166q-59 -71 -136 -111q-79 -41 -171 -41q-69 0 -124 33q-55 32 -76 106 q-61 -75 -128 -106q-69 -32 -146 -32q-63 0 -112 23q-46 21 -80 62q-31 36 -48 93q-16 52 -16 117q0 59 15 119q15 59 45 115q33 62 74 105q47 50 105 85q60 36 135 57t166 21q78 0 135 -12q54 -11 109 -35l-99 -380q-16 -64 -16 -109q0 -30 8 -52q7 -21 20 -32 q14 -13 31 -17q20 -5 40 -5q43 0 82 27t67 76t45 117q17 70 17 148q0 134 -41 234q-42 102 -116 170q-73 67 -178 102q-102 34 -226 34q-136 0 -249 -50q-117 -52 -200 -139q-84 -89 -132 -208q-48 -120 -48 -258q0 -169 52 -295q52 -128 144 -213q92 -86 214 -129t267 -43 q79 0 148 9q75 10 125 23q64 17 105 34q43 18 84 41q19 11 35 11q30 0 42 -33l35 -91q-111 -72 -249 -114q-144 -44 -325 -44q-184 0 -343 59t-273 167q-115 109 -180 266t-65 352zM629 490q0 -66 28 -101q29 -37 82 -37q25 0 54 8q26 7 52 30q25 22 45 55t34 87l74 289 q-33 6 -67 6q-63 0 -119 -27q-53 -26 -96 -75q-40 -45 -64 -108q-23 -59 -23 -127z" />
<glyph unicode="A" horiz-adv-x="1662" d="M35 0v105q0 36 40 52q12 4 113 47l501 1277h282l501 -1277q101 -42 112 -47q41 -17 41 -52v-105h-73h-160h-34h-19h-214v105q0 36 40 52q2 1 7.5 3t15 6t18.5 8l-8 22l-73 201h-590l-77 -210l-4 -13q10 -4 19 -7.5t14.5 -6t6.5 -3.5q41 -17 41 -52v-105h-214h-19h-34 h-161h-72zM606 592h448l-168 460q-9 24 -27 77q-16 48 -30 97q-3 -12 -9 -32.5t-10.5 -36.5t-8.5 -29q-12 -39 -27 -78z" />
<glyph unicode="B" horiz-adv-x="1321" d="M41 0v120q0 54 51 64q5 2 13 3q2 0 7 1t11 2t13 2t27 4.5t33 6.5v1075q-14 3 -33.5 6t-26.5 4q-25 5 -31 6q-2 0 -5 0.5t-5 1t-3 0.5q-51 10 -51 64v121h155h511q141 0 248 -28q101 -26 169 -79q67 -52 97 -124q31 -74 31 -164q0 -48 -16 -99q-15 -48 -47 -89 q-33 -42 -82 -76q-46 -32 -118 -57q305 -69 305 -330q0 -95 -36 -174q-37 -81 -104 -138q-66 -56 -169 -90q-100 -33 -230 -33h-559h-155zM472 215h279q78 0 129 18q48 17 83 50q31 30 45 71q13 39 13 87t-15 87q-14 38 -48 65q-33 27 -84 42q-48 14 -124 14h-278v-434z M472 840h220q141 0 213 51t72 163q0 116 -65 165t-205 49h-235v-428z" />
<glyph unicode="C" horiz-adv-x="1304" d="M29 740q0 169 55 306q55 138 156 239q100 101 240 156q141 56 308 56q185 0 465 -107v-377h-118q-40 0 -48 38q-5 31 -18 162q-170 50 -283 50q-103 0 -192 -37q-86 -36 -150 -104q-62 -66 -98 -164t-36 -218q0 -124 36 -222q37 -100 95 -164q60 -66 143 -102 q80 -35 176 -35q57 0 102 6q43 6 84 20q37 13 72 34q33 20 68 52q11 10 22 15q10 5 24 5q23 0 39 -17l109 -118q-90 -111 -222 -171q-130 -59 -316 -59q-166 0 -296 56q-133 57 -225 157q-94 102 -143 239q-49 138 -49 304z" />
<glyph unicode="D" horiz-adv-x="1520" d="M41 0v120q0 54 51 64q5 2 13 3q2 0 7 1t11 2t13 2t27 4.5t33 6.5v1075q-14 3 -33.5 6t-26.5 4q-25 5 -31 6q-2 0 -5 0.5t-5 1t-3 0.5q-51 10 -51 64v121h155h543q169 0 306 -55q138 -56 237 -153t153 -234t54 -299t-54 -299q-53 -134 -153 -234q-99 -99 -237 -153 t-306 -54h-543h-155zM474 219h265q108 0 195 36q88 36 147 103q61 68 93 164q33 98 33 218q0 122 -33 219q-32 96 -93 164q-59 67 -147 103q-87 36 -195 36h-265v-1043z" />
<glyph unicode="E" horiz-adv-x="1175" d="M41 0v120q0 54 51 64q5 2 13 3q2 0 7 1t11 2t13 2t27 4.5t33 6.5v1075q-14 3 -33.5 6t-26.5 4q-25 5 -31 6q-2 0 -5 0.5t-5 1t-3 0.5q-51 10 -51 64v121h155h934v-143v-76v-170h-9h-25h-84q-40 0 -48 38q-4 24 -15 132h-475v-411h500v-212h-500v-419h475q11 108 15 132 q8 38 48 38h84h25h9v-170v-76v-144h-934h-155z" />
<glyph unicode="F" horiz-adv-x="1215" d="M41 0v120q0 54 51 64q5 2 13 3q2 0 7 1t11 2t13 2t27 4.5t33 6.5v1075q-14 3 -33.5 6t-26.5 4q-25 5 -31 6q-12 2 -13 2q-51 10 -51 64v121h155h887h47h52v-143v-48v-198h-9h-25h-84q-40 0 -48 38q-4 24 -15 132h-527v-439h516v-220h-516v-400q13 -3 33 -6.5t27 -4.5 t13 -2t11 -2t7 -1q6 -1 12 -3q52 -11 52 -64v-120h-155h-278h-155z" />
<glyph unicode="G" horiz-adv-x="1379" d="M29 740q0 167 54 307q54 139 154 239q101 101 242 156q139 54 305 55h13h2q239 0 524 -105v-379h-9h-25h-84q-40 0 -48 38q-2 13 -17 160q-153 51 -351 51q-113 0 -198 -36q-88 -37 -151 -106q-61 -66 -96 -165q-34 -95 -34 -215q0 -126 36 -227t100 -169t154 -105 q88 -36 195 -36q91 0 162 17q69 17 131 46v270h-185q-28 0 -42 14q-15 15 -15 37v155h492v-599q-63 -44 -117 -71q-60 -29 -130 -49q-69 -20 -148 -30q-79 -9 -170 -9q-164 0 -298 56q-136 57 -235 157q-102 104 -156 239q-55 138 -55 304z" />
<glyph unicode="H" horiz-adv-x="1641" d="M41 0v120q0 54 51 64q5 2 13 3q2 0 7 1t11 2t13 2t27 4.5t33 6.5v1075q-14 3 -33.5 6t-26.5 4q-25 5 -31 6q-12 2 -13 2q-51 10 -51 64v121h155h277h156v-121q0 -53 -52 -64q-1 0 -3 -0.5t-5 -1t-5 -0.5l-30 -6q-7 -1 -26.5 -4t-33.5 -6v-434h694v434q-14 3 -34 6t-27 4 q-6 1 -13 2.5t-10.5 2.5t-6.5 1q-2 0 -5 0.5t-5 1t-3 0.5q-51 10 -51 64v121h155h277h155v-121q0 -54 -51 -64q-1 0 -3 -0.5t-5 -1t-5 -0.5q-3 0 -6.5 -1t-10.5 -2.5t-13 -2.5q-7 -1 -27 -4t-34 -6v-1075q14 -3 34 -6.5t27 -4.5t12.5 -2t10.5 -2t7 -1q8 -1 13 -3 q51 -10 51 -64v-120h-155h-277h-155v120q0 54 51 64q5 2 13 3l30 5q7 1 27 4.5t34 6.5v444h-694v-444q13 -3 33 -6.5t27 -4.5l30 -5q8 -1 13 -3q52 -11 52 -64v-120h-155h-278h-155z" />
<glyph unicode="I" horiz-adv-x="668" d="M41 0v120q0 54 51 64q5 2 13 3q2 0 7 1t11 2t13 2t27 4.5t33 6.5v1075q-14 3 -33.5 6t-26.5 4q-25 5 -31 6q-12 2 -13 2q-51 10 -51 64v121h155h277h155v-121q0 -53 -52 -64l-12 -2q-6 -1 -31 -6q-7 -1 -26.5 -4t-33.5 -6v-1075q13 -3 33 -6.5t27 -4.5t13 -2t11 -2t7 -1 q6 -1 12 -3q52 -11 52 -64v-120h-155h-277h-155z" />
<glyph unicode="J" horiz-adv-x="926" d="M34 11l14 164q2 23 17 37q14 13 44 13q18 0 45 -7t71 -7q58 0 104 17q45 16 75 54q32 40 46 95q15 58 15 143v758q-15 3 -37.5 6t-27.5 4q-26 4 -41 6l-17 2q-51 10 -51 64v121h174h275h155v-121q0 -54 -51 -64q-1 0 -3 -0.5t-5 -1t-5 -0.5q-3 0 -6.5 -1t-10.5 -2.5 t-13 -2.5q-7 -1 -27 -4t-34 -6v-752q0 -124 -30 -225q-30 -100 -92 -171t-152 -108q-93 -38 -212 -38q-55 0 -109 6q-51 6 -111 21z" />
<glyph unicode="K" horiz-adv-x="1507" d="M41 0v120q0 54 51 64q5 2 13 3q2 0 7 1t11 2t13 2t27 4.5t33 6.5v1076q-14 3 -33.5 6t-26.5 4q-25 5 -31 6q-2 0 -5 0.5t-5 1t-3 0.5q-51 11 -51 64v121h155h275h155v-121q0 -53 -51 -64q-1 0 -3 -0.5t-5 -1t-5 -0.5q-3 0 -6.5 -1t-10.5 -2.5t-13 -2.5q-7 -1 -26.5 -4 t-33.5 -6v-419h64q38 0 65 11t44 34l305 386q-8 2 -14 3q-2 0 -5 0.5t-5 1t-3 0.5q-51 10 -51 64v121h339h51h156v-121q0 -53 -52 -64l-16 -2q-2 0 -14.5 -2t-22.5 -3q-3 0 -61 -10l-335 -414q-24 -29 -45 -48t-46 -32q36 -13 61 -34q26 -22 53 -58l364 -491q10 -2 31 -5 t30 -5q10 -1 22.5 -3t14.5 -2q11 -1 16 -3q51 -10 51 -64v-120h-15h-140h-79h-25h-315v120q0 54 51 64q4 1 17 3q4 0 8 1t9.5 2t9.5 2l-313 409q-20 26 -46 38q-25 12 -72 12h-87v-448q14 -3 34 -6.5t26 -4.5q7 -1 12.5 -2t10.5 -2t7 -1q8 -1 13 -3q51 -10 51 -64v-120h-154 h-276h-155z" />
<glyph unicode="L" horiz-adv-x="1157" d="M41 0v120q0 54 51 64q5 2 13 3q2 0 7 1t11 2t13 2t27 4.5t33 6.5v1075q-14 3 -33.5 6t-26.5 4q-25 5 -31 6q-12 2 -13 2q-51 10 -51 64v121h155h275h155v-121q0 -54 -51 -64q-1 0 -3 -0.5t-5 -1t-5 -0.5q-3 0 -6.5 -1t-10.5 -2.5t-13 -2.5q-17 -3 -60 -10v-1051h476 q4 56 9 89q8 38 47 38h109v-207v-39v-108h-49h-6h-862h-155z" />
<glyph unicode="M" horiz-adv-x="1997" d="M41 0v120q0 54 51 64q5 2 13 3q2 0 7 1t11 2t13 2t27 4.5t33 6.5v1075q-14 3 -33.5 6t-26.5 4q-25 5 -31 6q-12 2 -13 2q-51 10 -51 64v121h155h208q23 0 32 -1q17 -2 24 -5q11 -5 20 -14q10 -10 17 -24l443 -823q12 -22 32 -68q6 -13 15.5 -37.5t13.5 -33.5q4 10 30 73 q16 40 32 68l439 821q7 14 17 24t19 14q7 3 24 5q9 1 32 1h208h155v-121q0 -54 -51 -64q-1 0 -3 -0.5t-5 -1t-5 -0.5q-6 -1 -31 -6q-7 -1 -26.5 -4t-33.5 -6v-1075q13 -3 33 -6.5t27 -4.5t13 -2t11 -2t7 -1q8 -1 13 -3q51 -10 51 -64v-120h-155h-243h-185v120q0 53 52 64 q2 1 133 19v753q0 17 2 59t4 64l-447 -839q-14 -27 -40 -45q-23 -16 -58 -16h-37q-35 0 -58 16q-26 18 -40 45l-453 842q3 -24 5 -66t2 -60v-753q131 -18 133 -19q51 -10 51 -64v-120h-184h-243h-155z" />
<glyph unicode="N" horiz-adv-x="1631" d="M41 0v120q0 54 51 64q5 2 13 3q2 0 7 1t11 2t13 2t27 4.5t33 6.5v1075q-14 3 -33.5 6t-26.5 4q-25 5 -31 6q-2 0 -5 0.5t-5 1t-3 0.5q-51 10 -51 64v121h155h144q15 0 31 -2q11 -1 22 -6q12 -6 19 -13q13 -13 21 -23l777 -991q-4 36 -6 71q-1 23 -1 64v697q-36 5 -70 9.5 t-48 6.5t-16 2q-51 10 -51 64v121h185h242h155v-121q0 -54 -51 -64q-1 0 -3 -0.5t-5 -1t-5 -0.5q-3 0 -6.5 -1t-10.5 -2.5t-13 -2.5q-7 -1 -27 -4t-34 -6v-1278h-142q-34 0 -54 10q-22 11 -42 37l-774 986q2 -21 4 -65t2 -59v-706q131 -18 133 -19q51 -10 51 -64v-120h-184 h-243h-155z" />
<glyph unicode="O" horiz-adv-x="1561" d="M29 740q0 162 54 302q53 137 153 240q98 101 238 158t306 57q168 0 306 -57q137 -57 237 -158q99 -100 153 -240t54 -302t-54 -301q-53 -137 -153 -240q-99 -102 -237 -159q-136 -56 -306 -56q-169 0 -306 56q-139 57 -238 159q-100 103 -153 240q-54 139 -54 301z M310 740q0 -120 33 -218q33 -97 94 -164t148 -103t195 -36t195 36q88 36 147 103q61 68 93 164q32 95 32 218q0 124 -32 219q-32 96 -93 164t-147 104q-87 36 -195 36t-195 -36q-85 -35 -148 -104q-61 -67 -94 -164t-33 -219z" />
<glyph unicode="P" horiz-adv-x="1259" d="M41 0v120q0 54 51 64q5 2 13 3q2 0 7 1t11 2t13 2t27 4.5t33 6.5v1075q-14 3 -33.5 6t-26.5 4q-25 5 -31 6q-12 2 -13 2q-51 10 -51 64v121h155h458q147 0 257 -35t179 -97q70 -63 105 -150q34 -86 34 -190q0 -107 -36 -197q-36 -91 -108 -155t-179 -100 q-108 -36 -252 -36h-182v-318q13 -3 33 -6.5t27 -4.5t12.5 -2t10.5 -2t7 -1q8 -1 13 -3q51 -10 51 -64v-120h-154h-276h-155zM472 736h182q76 0 132 19q59 20 94 54q37 36 55 86q18 51 18 114q0 59 -18 107t-55 82t-94 52t-132 18h-182v-532z" />
<glyph unicode="Q" horiz-adv-x="1630" d="M29 740q0 162 54 302q53 137 153 240q98 101 238 158t306 57q168 0 306 -57q137 -57 237 -158q99 -100 153 -240t54 -302q0 -100 -21 -190q-22 -93 -59 -169q-41 -83 -93 -145q-57 -67 -126 -116l376 -410h-228q-48 0 -88 14t-72 49l-218 239q-43 -12 -107 -21 q-52 -7 -114 -7q-169 0 -306 56q-139 57 -238 159q-100 103 -153 240q-54 139 -54 301zM310 740q0 -120 33 -218q33 -97 94 -164t148 -103t195 -36t195 36q88 36 147 103q61 68 93 164q32 95 32 218q0 124 -32 219q-32 96 -93 164t-147 104q-87 36 -195 36t-195 -36 q-85 -35 -148 -104q-61 -67 -94 -164t-33 -219z" />
<glyph unicode="R" horiz-adv-x="1402" d="M41 0v120q0 54 51 64q5 2 13 3q2 0 7 1t11 2t13 2t27 4.5t33 6.5v1075q-14 3 -33.5 6t-26.5 4q-25 5 -31 6q-2 0 -5 0.5t-5 1t-3 0.5q-51 10 -51 64v121h155h437q150 0 260 -32q111 -32 177 -87q67 -56 101 -135q33 -78 33 -172q0 -75 -23 -142q-24 -69 -63 -120 q-46 -59 -102 -96q-63 -42 -139 -65q53 -30 90 -85l233 -344q16 -3 39 -7t24 -4q8 -1 15 -2t13 -2t8 -1q12 -2 16 -3q51 -10 51 -64v-120h-28h-127h-121q-37 0 -61 14q-26 15 -43 41l-311 474q-18 26 -38 38q-21 12 -62 12h-103v-376q14 -3 34 -6.5t26 -4.5q7 -1 12.5 -2 t10.5 -2t7 -1q8 -1 13 -3q51 -10 51 -64v-120h-154h-276h-155zM472 776h157q76 0 136 20q59 20 95 53q38 35 56 82t18 103q0 113 -74 173q-76 61 -227 61h-161v-492z" />
<glyph unicode="S" horiz-adv-x="1035" d="M36 62v37v344h9h24h85q39 0 47 -38q7 -45 19 -169q88 -27 280 -27q117 0 182 56q64 55 64 160q0 57 -29 95q-27 35 -77 62q-45 24 -110 43q-115 34 -125 37q-61 20 -125 50q-63 29 -109 74q-48 47 -77 116q-30 73 -30 170q0 82 33 158q30 74 94 136q59 58 152 95 q90 36 206 36q218 0 425 -84v-379h-9h-25h-84q-40 0 -48 38q-5 29 -18 166q-79 35 -238 35q-56 0 -100 -14q-43 -14 -72 -38q-27 -23 -43 -59q-15 -34 -15 -76q0 -51 30 -87q29 -35 77 -59q50 -25 110 -44q51 -16 125 -42q60 -21 125 -51q64 -29 110 -73q48 -45 77 -110 q29 -66 29 -156q0 -102 -34 -188q-36 -90 -100 -153q-67 -65 -161 -102q-93 -37 -219 -37h-30q-197 0 -425 78z" />
<glyph unicode="T" horiz-adv-x="1297" d="M33 1130v351h30h3h1164h1h33v-351h-9h-25h-84q-40 0 -48 39q-2 10 -10 85h-302v-1051q13 -3 33 -6.5t27 -4.5t13 -2t11 -2t7 -1q8 -1 13 -3q51 -10 51 -64v-120h-155h-275h-155v120q0 54 51 64q5 2 13 3l30 5q7 1 27 4.5t34 6.5v1051h-302q-6 -57 -11 -85q-8 -39 -47 -39 h-85h-24h-9z" />
<glyph unicode="U" horiz-adv-x="1600" d="M31 1360v121h155h275h164v-121q0 -54 -51 -64q-1 0 -3.5 -0.5t-5.5 -1t-6 -0.5q-13 -2 -35 -6q-7 -1 -17 -2.5t-23.5 -4t-22.5 -3.5v-683q0 -83 23 -154q22 -69 66 -117t106 -75q63 -27 143 -27t143 27q64 27 107 75q44 49 66 116q23 71 23 154v684q-14 3 -35.5 6 t-27.5 4q-22 4 -35 6q-3 0 -6 0.5t-5.5 1t-3.5 0.5q-51 10 -51 64v121h164h276h155v-121q0 -53 -52 -64q-1 0 -2.5 -0.5t-2.5 -0.5t-3 -0.5t-4 -0.5q-6 -1 -31 -6q-7 -1 -26.5 -4t-33.5 -6v-684q0 -129 -43 -244q-42 -112 -122 -194q-81 -82 -194 -127q-114 -45 -256 -45 t-256 45q-112 44 -193 127q-80 82 -122 194q-42 113 -42 244v684q-14 3 -34 6t-27 4q-6 1 -13 2.5t-10.5 2.5t-6.5 1q-2 0 -5 0.5t-5 1t-3 0.5q-51 10 -51 64z" />
<glyph unicode="V" horiz-adv-x="1652" d="M33 1360v121h70h85h138h260v-121q0 -54 -51 -64q-2 0 -10 -2q-12 -3 -22 -5q-4 -1 -9.5 -2t-12 -3t-10.5 -3l295 -766q10 -25 33 -97q8 -27 30 -111q24 116 59 208l294 765q-4 1 -16 3.5t-18 4.5q-18 5 -21 6l-10 2q-52 11 -52 64v121h261h137h85h71v-121q0 -53 -52 -64 q-2 -1 -6 -1.5t-6 -0.5q-1 0 -11.5 -1.5t-18.5 -3.5q-32 -7 -58 -11l-517 -1278h-249l-516 1278q-26 4 -58 11q-8 2 -18.5 3.5t-11.5 1.5q-2 0 -6.5 0.5t-6.5 1.5q-51 10 -51 64z" />
<glyph unicode="W" horiz-adv-x="2321" d="M31 1360v121h70h85h147h251v-121q0 -54 -51 -64q-1 0 -11 -2q-6 -1 -22 -6q-6 -2 -19 -4.5t-17 -3.5l213 -748q11 -42 17 -71q8 -37 15 -81q5 29 17 81q8 36 21 71l291 886q7 22 33 43q25 20 58 20h81q35 0 60 -17q22 -15 32 -46l289 -886q23 -67 39 -145q10 52 15 77 q1 5 16 68l212 746q-34 8 -85 18t-51 64v121h267h131h85h70v-121q0 -54 -51 -64q-1 0 -3.5 -0.5t-8.5 -1.5t-11 -2q-6 -1 -25.5 -4.5t-32.5 -5.5l-398 -1282h-249l-323 1012q0 1 -5.5 17t-7.5 25q-1 3 -6 20.5t-7 27.5q-2 -10 -7 -27.5t-6 -20.5q-2 -8 -6 -22t-6 -20 l-327 -1012h-249l-398 1282q-32 6 -59 10q-19 4 -22 4q-51 10 -51 64z" />
<glyph unicode="X" horiz-adv-x="1595" d="M38 0v120q0 54 51 64q29 5 155 19l361 559l-338 516q-142 15 -158 18q-51 10 -51 64v121h75h78h11h186h286v-121q0 -54 -51 -64q-13 -3 -28.5 -6t-25 -5t-14.5 -3l234 -378q2 5 11 26q2 5 8 14.5t7 11.5l204 323q-45 11 -77 17q-51 10 -51 64v121h290h171h22h71h71v-121 q0 -54 -51 -64q-17 -3 -156 -18l-341 -505l362 -570q128 -14 156 -19q51 -10 51 -64v-120h-78h-68h-18h-190h-275v120q0 53 52 64q13 3 27 6t22 4.5t11 2.5l-252 417q-2 -5 -6 -13.5t-4 -9.5q-2 -3 -3.5 -6.5t-3.5 -7.5l-3 -6l-231 -368q57 -13 85 -19q51 -10 51 -64v-120 h-302h-169h-12h-77h-75z" />
<glyph unicode="Y" horiz-adv-x="1487" d="M33 1360v121h34h36h85h121h277v-121q0 -54 -51 -64q-2 0 -10 -2l-7 -2q-7 -2 -12 -3q-3 -1 -13 -3.5t-16 -3.5l196 -357q14 -25 41 -84q9 -19 32 -77q14 39 30 78q18 45 40 83l195 357q-7 2 -30 7q-5 1 -12 3l-7 2q-8 2 -10 2q-51 10 -51 64v121h276h122h85h36h34v-121 q0 -54 -51 -64q-2 -1 -6.5 -1.5t-6.5 -0.5l-30 -6q-10 -2 -60 -10l-418 -703v-372q13 -3 33 -6.5t27 -4.5t13 -2t11 -2t7 -1q6 -1 12 -3q52 -11 52 -64v-120h-155h-276h-155v120q0 53 52 64q6 2 12 3q2 0 7 1t11 2t13 2t27 4.5t33 6.5v372l-418 703q-14 3 -34 6t-27 4 q-6 1 -13 2.5t-10.5 2.5t-6.5 1q-12 2 -13 2q-51 10 -51 64z" />
<glyph unicode="Z" horiz-adv-x="1214" d="M35 0v109q0 21 7 39q8 22 18 35l762 1079h-564q-17 -139 -18 -146q-8 -39 -48 -39h-109v404h1096v-102q0 -47 -27 -86l-760 -1073h594q5 37 9 73t6 51t2 17q8 39 48 39h109v-180v-220h-1125z" />
<glyph unicode="[" horiz-adv-x="507" d="M56 -315v1899h420v-99q0 -27 -19 -46t-48 -19h-142v-1572h142q30 0 48 -18q19 -19 19 -46v-99h-420z" />
<glyph unicode="\" horiz-adv-x="894" d="M31 1522h108q45 0 79 -23q32 -22 50 -66l597 -1530h-106q-42 0 -79 23q-36 22 -55 71z" />
<glyph unicode="]" horiz-adv-x="506" d="M32 -216q0 27 19 46q18 18 48 18h142v1572h-142q-29 0 -48 19t-19 46v99h420v-1899h-420v99z" />
<glyph unicode="^" horiz-adv-x="1003" d="M38 796l382 685h164l382 -685h-186q-23 0 -38 12q-14 11 -25 30l-163 296q-5 9 -14 27t-14 27q-14 26 -21 52q-7 -26 -20 -53q-19 -41 -26 -53l-160 -296q-8 -17 -25 -30q-15 -12 -42 -12h-194z" />
<glyph unicode="_" horiz-adv-x="948" d="M70 -137h807v-164h-807v164z" />
<glyph unicode="`" horiz-adv-x="571" d="M46 1497h237q42 0 62 -14q21 -14 35 -40l146 -249h-144q-28 0 -47 8t-36 28z" />
<glyph unicode="a" horiz-adv-x="1067" d="M27 271q0 60 31 118t104 105q70 45 193 77q120 31 300 31v62q0 107 -44 157q-45 51 -130 51q-64 0 -102 -14q-46 -17 -71 -32q-11 -7 -30 -17.5t-26 -14.5q-25 -15 -56 -15q-25 0 -44 14q-21 16 -30 32l-46 81q181 166 437 166q92 0 164 -30q74 -31 123 -84 q51 -56 76 -129q26 -76 26 -163v-466q34 -6 54 -9q6 -1 11 -2l7.5 -1.5t3.5 -0.5q51 -11 51 -65v-120h-127h-28h-86q-34 0 -56 11q-21 10 -31 43l-22 75q-46 -41 -78 -63q-38 -26 -80 -45q-44 -20 -87 -28q-46 -9 -102 -9q-66 0 -123 18q-56 18 -97 54q-41 37 -63 89 q-22 53 -22 124zM268 285q0 -67 40 -96t103 -29q40 0 71 7q34 8 62 21q31 15 57 35q29 22 54 49v176q-109 0 -185 -14q-69 -13 -119 -36q-43 -20 -64 -51q-19 -28 -19 -62z" />
<glyph unicode="b" horiz-adv-x="1190" d="M29 1401v121h163h253v-600q66 69 141 106q80 39 184 39q88 0 157 -35q74 -38 123 -103q52 -68 80 -167q28 -97 28 -228q0 -120 -31 -219q-31 -98 -91 -174q-58 -73 -142 -115q-82 -41 -187 -41q-227 0 -515 57v330v947q-14 3 -35.5 6t-27.5 4q-26 5 -34 6q-3 0 -6 0.5 t-5.5 1t-3.5 0.5q-51 11 -51 64zM445 197q105 -20 203 -20q55 0 104 22q46 21 78 65q32 45 50 111q17 64 17 159q0 92 -15 156q-15 63 -42 104q-26 39 -67 58q-39 18 -90 18q-79 0 -134 -33t-104 -94v-546z" />
<glyph unicode="c" horiz-adv-x="941" d="M31 527q0 116 33 215q33 98 98 171q65 72 160 113q97 41 219 41q128 0 331 -76l-1 -323h-8h-25h-84q-40 0 -48 38q-6 32 -17 148q-82 20 -133 20q-68 0 -117 -24q-50 -24 -83 -69q-34 -46 -50 -109t-16 -145q0 -83 18 -149q18 -67 51 -110q35 -46 82 -68q49 -23 109 -23 t98 15t63 33q13 9 44 33q18 14 43 14q32 0 46 -23l72 -92q-44 -51 -91 -83q-51 -34 -102 -53q-57 -21 -109 -28q-61 -8 -111 -8q-99 0 -184 36q-84 35 -150 106q-63 67 -101 170q-37 99 -37 230z" />
<glyph unicode="d" horiz-adv-x="1173" d="M31 521q0 119 31 218q31 98 91 174q59 75 142 116q82 41 187 41q89 0 151 -27q61 -27 111 -75v351q-14 3 -33.5 6t-26.5 4q-25 5 -31 6l-12 2q-52 11 -52 64v121h155h253v-1317q30 -5 53 -9q9 -1 27 -5q2 0 6 -0.5t6 -1.5q51 -11 51 -64v-121h-143h-154q-25 0 -42 11 q-19 13 -23 35l-20 98q-64 -73 -146 -118t-193 -45q-86 0 -157 36q-74 38 -123 103q-52 69 -80 168t-28 229zM292 521q0 -91 15 -156q15 -63 42 -104q26 -39 67 -58t90 -19q78 0 135 34q55 32 103 93v471q-44 55 -93 75q-51 21 -109 21q-55 0 -104 -22q-45 -20 -79 -65 q-32 -44 -50 -112q-17 -64 -17 -158z" />
<glyph unicode="e" horiz-adv-x="1022" d="M31 548q0 106 35 202q34 94 99 165q64 69 159 111q94 41 212 41q97 0 182 -32q86 -32 144 -92q59 -61 94 -150q34 -87 34 -202q0 -35 -2 -48q-2 -16 -10 -29q-7 -12 -17 -16q-11 -4 -29 -4h-649q12 -163 87 -238q76 -76 200 -76q61 0 106 15q54 18 78 31q5 3 27 14.5 t32 17.5q24 14 48 14q15 0 27 -6t19 -17l74 -92q-43 -51 -94 -83q-55 -34 -109 -53q-61 -21 -116 -28q-62 -8 -114 -8q-110 0 -204 36q-93 35 -164 108q-68 69 -109 176q-40 104 -40 243zM288 646h475q0 51 -13 93t-41 76q-26 31 -70 52q-41 19 -98 19q-110 0 -173 -63 q-62 -62 -80 -177z" />
<glyph unicode="f" horiz-adv-x="753" d="M36 938v103h157v78q0 90 27 162q28 74 77 122q51 50 124 77q69 26 164 26q74 0 135 -19l-5 -127q-1 -29 -28 -37q-24 -7 -59 -7q-41 0 -81 -10q-35 -9 -60 -34q-23 -23 -37 -63q-13 -38 -13 -98v-70h274v-180h-266v-658q15 -3 38 -6.5t26 -4.5q8 -1 15 -2t13 -2t8 -1 q12 -2 16 -3q51 -10 51 -64v-120h-167h-252h-155v120q0 54 51 64q5 2 13 3q2 0 7 1t10.5 2t12.5 2q31 6 61 11v657l-92 14q-27 4 -47 21q-18 15 -18 43z" />
<glyph unicode="g" horiz-adv-x="1056" d="M23 -92q0 74 45 124t125 80q-39 21 -63 57t-24 93q0 18 9 49q6 22 25 49q17 25 42 47q20 18 61 39q-82 45 -126 115q-45 72 -45 168q0 79 31 141q31 61 87 107q56 45 132 69q73 23 166 23q65 0 127 -14q61 -14 109 -40h302v-94q0 -23 -12 -37q-13 -15 -42 -19l-94 -17 q8 -20 15 -56q6 -30 6 -63q0 -79 -31 -141q-33 -65 -86 -107q-57 -45 -130 -68q-75 -24 -164 -24q-63 0 -115 11q-49 -30 -49 -66q0 -32 29 -47q28 -15 77 -21q43 -5 108 -7q40 -1 124 -7q63 -4 123 -18q61 -14 108 -40q48 -27 77 -76t29 -122q0 -70 -34 -135 q-35 -66 -99 -117q-63 -50 -159 -82t-215 -32q-118 0 -208 23q-86 22 -146 62q-59 39 -87 88t-28 105zM242 -59q0 -29 13 -52t45 -42q30 -18 78 -27t118 -9q72 0 121 10q53 11 85 30q35 20 49 45q15 26 15 57t-18 50q-17 19 -51 30q-36 12 -74 16q-53 6 -90 8 q-17 1 -49.5 2.5t-48.5 2.5q-52 3 -98 9q-45 -25 -69 -56q-26 -34 -26 -74zM302 723q0 -37 12 -69q12 -31 35 -54t58 -36t81 -13q49 0 82 13q38 15 58 35q23 23 35 54t12 70q0 78 -47 123q-48 46 -140 46q-91 0 -139 -46q-47 -45 -47 -123z" />
<glyph unicode="h" horiz-adv-x="1301" d="M39 0v120q0 54 51 64q5 2 13 3q2 0 7 1t11 2t13 2t27 4.5t33 6.5v1116q-14 3 -33.5 6t-26.5 4q-25 5 -31 6q-2 0 -5 0.5t-5 1t-3 0.5q-51 11 -51 64v121h155h253v-585q60 57 135 94q74 36 173 36q86 0 153 -29q65 -28 111 -82q44 -52 67 -126q23 -75 23 -161v-466 q14 -3 34 -6.5t27 -4.5t13 -2t11 -2t7 -1q6 -1 12 -3q52 -11 52 -64v-120h-156h-252v669q0 97 -45 149t-134 52q-67 0 -122 -29q-59 -31 -109 -81v-557q13 -3 33 -6.5t27 -4.5t13 -2t11 -2t7 -1q8 -1 13 -3q51 -10 51 -64v-120h-155h-253h-155z" />
<glyph unicode="i" horiz-adv-x="635" d="M37 0v120q0 54 51 64q5 2 13 3l30 5q7 1 27 4.5t34 6.5v645q-14 3 -34 6t-27 4q-6 1 -13 2.5t-10.5 2.5t-6.5 1q-2 0 -5 0.5t-5 1t-3 0.5q-51 10 -51 64v121h155h253v-848q13 -3 33 -6.5t27 -4.5t13 -2t11 -2t7 -1q8 -1 13 -3q51 -10 51 -64v-120h-155h-253h-155z M159 1357q0 34 13 63q14 31 34 51q21 21 51 35q27 13 62 13q34 0 63 -13q28 -13 52 -35q21 -19 35 -51q14 -31 14 -63t-14 -62q-15 -31 -35 -50q-22 -20 -52 -34q-29 -13 -63 -13q-35 0 -62 13q-32 15 -51 34q-20 20 -34 50q-13 27 -13 62z" />
<glyph unicode="j" horiz-adv-x="552" d="M23 -349l8 136q3 20 16 26t51 6q40 0 64 7t42 25q17 17 23 45q6 27 6 68v884q-50 8 -60 10l-30 6q-2 0 -6.5 0.5t-6.5 1.5q-51 10 -51 64v121h154h253v-1087q0 -69 -18 -129q-18 -62 -57 -106q-40 -46 -103 -71q-68 -27 -156 -27q-34 0 -67 5q-31 5 -62 15zM201 1357 q0 34 13 63q14 31 34 51q21 21 51 35q27 13 61 13q35 0 64 -13q28 -13 52 -35q21 -19 35 -51q13 -29 13 -63q0 -35 -13 -62q-15 -31 -35 -50q-22 -20 -52 -34q-29 -13 -64 -13q-34 0 -61 13q-32 15 -51 34q-20 20 -34 50q-13 27 -13 62z" />
<glyph unicode="k" horiz-adv-x="1242" d="M39 0v120q0 54 51 64q5 2 13 3q2 0 7 1t11 2t13 2t27 4.5t33 6.5v1116q-14 3 -33.5 6t-26.5 4q-25 5 -31 6q-2 0 -5 0.5t-5 1t-3 0.5q-51 11 -51 64v121h155h253v-872h47q26 0 40 7t31 27l145 179q-15 3 -17 3q-51 10 -51 64v121h251l-1 -2q16 2 22 2h224h1v-121 q0 -54 -51 -64q-6 -2 -18 -3q-2 0 -9 -1t-14.5 -2t-15.5 -2q-14 -2 -57 -8l-155 -189q-24 -28 -36 -40q-15 -15 -40 -31q22 -16 38 -36q22 -28 33 -44l211 -307q13 -2 37 -5.5t28 -4.5q31 -5 43 -6q14 -2 20 -3q51 -10 51 -64v-120h-40h-115h-114q-30 0 -50 10t-37 35 l-267 398q-14 23 -31 31q-14 7 -46 7h-57v-278q13 -3 33 -6.5t27 -4.5t13 -2t11 -2t7 -1q8 -1 13 -3q51 -10 51 -64v-120h-155h-253h-155z" />
<glyph unicode="l" horiz-adv-x="636" d="M39 0v120q0 54 51 64q5 2 13 3q2 0 7 1t11 2t13 2t27 4.5t33 6.5v1116q-14 3 -33.5 6t-26.5 4q-25 5 -31 6q-2 0 -5 0.5t-5 1t-3 0.5q-51 11 -51 64v121h155h253v-1319q13 -3 33 -6.5t27 -4.5t13 -2t11 -2t7 -1q8 -1 13 -3q51 -10 51 -64v-120h-155h-253h-155z" />
<glyph unicode="m" horiz-adv-x="1863" d="M40 0v120q0 54 51 64q5 2 13 3q2 0 7 1t11 2t13 2t27 4.5t33 6.5v645q-14 3 -33.5 6t-26.5 4q-25 5 -31 6q-2 0 -5 0.5t-5 1t-3 0.5q-51 10 -51 64v121h155h155q49 0 64 -46l17 -78q29 32 57 56q31 26 65 44q36 19 74 29q41 11 86 11q99 0 164 -54q63 -53 95 -143 q24 52 62 90q36 36 81 61q40 22 93 35q45 11 100 11q88 0 155 -27t113 -77q47 -52 71 -125t24 -169v-466q13 -3 33 -6.5t27 -4.5t13 -2t11 -2t7 -1q8 -1 13 -3q51 -10 51 -64v-120h-155h-253v669q0 99 -44 151q-43 50 -129 50q-41 0 -73 -13q-34 -14 -58 -38 q-23 -23 -39 -63q-15 -38 -15 -87v-466q14 -3 34 -6.5t27 -4.5l30 -5q8 -1 13 -3q51 -10 51 -64v-120h-155h-254v669q0 105 -42 153t-126 48q-53 0 -101 -27t-89 -74v-566q13 -3 33 -6.5t27 -4.5t13 -2t11 -2t7 -1q8 -1 13 -3q51 -10 51 -64v-120h-155h-253h-155z" />
<glyph unicode="n" horiz-adv-x="1303" d="M40 0v120q0 54 51 64q5 2 13 3q2 0 7 1t11 2t13 2t27 4.5t33 6.5v645q-14 3 -33.5 6t-26.5 4q-25 5 -31 6q-2 0 -5 0.5t-5 1t-3 0.5q-51 10 -51 64v121h155h155q49 0 64 -46l18 -83q29 31 67 59q36 27 74 46t85 30q43 10 98 10q86 0 153 -29q65 -28 111 -82 q44 -52 67 -126q23 -75 23 -161v-466q14 -3 34 -6.5t27 -4.5t13 -2t11 -2t7 -1q6 -1 12 -3q52 -11 52 -64v-120h-156h-252v669q0 97 -45 149t-134 52q-67 0 -122 -29q-59 -31 -109 -81v-557q13 -3 33 -6.5t27 -4.5t13 -2t11 -2t7 -1q8 -1 13 -3q51 -10 51 -64v-120h-155 h-253h-155z" />
<glyph unicode="o" horiz-adv-x="1102" d="M31 527q0 126 37 225q37 100 106 170q68 69 164 107q97 38 214 38q116 0 213 -38q96 -38 164 -107q66 -67 104 -170q37 -99 37 -225t-37 -225q-38 -102 -104 -171q-67 -70 -164 -108t-213 -38q-117 0 -214 38t-164 108q-69 72 -106 171t-37 225zM292 525q0 -169 63 -257 q63 -89 197 -89q131 0 194 88q63 89 63 258q0 171 -63 259q-63 89 -194 89q-135 0 -197 -89q-63 -90 -63 -259z" />
<glyph unicode="p" horiz-adv-x="1181" d="M27 -223q0 53 51 64q5 2 13 3q2 0 7 1t10.5 2t12.5 2t27 4.5t34 6.5v988q-14 3 -34 6t-27 4l-30 6q-2 0 -5 0.5t-5 1t-3 0.5q-51 10 -51 64v121h155h154q24 0 42 -12q19 -13 23 -34l20 -98q64 73 146 118q83 45 193 45q86 0 157 -36q72 -37 123 -104q52 -69 80 -168 t28 -228q0 -120 -31 -219q-31 -98 -91 -174q-58 -73 -142 -115q-82 -41 -187 -41q-89 0 -151 27t-111 75v-227q13 -3 33 -6.5t27 -4.5t13 -2t11 -2t7 -1q8 -1 13 -3q51 -11 51 -64v-120h-155h-253h-155v120zM435 272q43 -53 93 -74q51 -21 109 -21q55 0 104 22q45 20 79 65 q32 45 50 111q17 64 17 159q0 92 -15 156q-15 63 -42 104q-26 39 -67 58q-39 18 -90 18q-79 0 -134 -33t-104 -94v-471z" />
<glyph unicode="q" horiz-adv-x="1183" d="M31 520q0 119 31 218q31 98 91 174q59 75 142 116q82 41 187 41q227 0 515 -57v-330v-823q15 -3 36 -6.5l27 -4.5q3 -1 34 -5q10 -1 15 -3q51 -10 51 -64v-120h-163h-252h-156v120q0 53 52 64q6 2 12 3q2 0 7 1t11 2t13 2t27 4.5t33 6.5v273q-66 -69 -141 -106 q-79 -39 -184 -39q-88 0 -157 35q-74 38 -123 103q-52 68 -80 167q-28 97 -28 228zM292 520q0 -92 15 -156q15 -63 42 -104q26 -39 67 -58t90 -19q77 0 134 34q56 34 104 93v547q-105 20 -203 20q-55 0 -104 -22q-45 -20 -78 -66q-31 -41 -50 -111q-17 -64 -17 -158z" />
<glyph unicode="r" horiz-adv-x="892" d="M40 0v120q0 54 51 64q71 13 104 19v645q-99 17 -104 18q-51 10 -51 64v121h155h149q39 0 54 -15q16 -16 20 -49l16 -127q58 99 132 154q75 56 170 56q78 0 129 -36l-33 -189q-3 -19 -13 -26q-11 -8 -28 -8t-42 7t-71 7q-79 0 -135 -43q-55 -42 -95 -128v-451 q33 -6 104 -19q51 -10 51 -64v-120h-155h-253h-155z" />
<glyph unicode="s" horiz-adv-x="824" d="M43 746q0 63 26 123q25 59 75 102q52 45 124 70q75 26 171 26q79 0 138.5 -10t166.5 -44v-298h-8h-25h-84q-40 0 -48 38q-3 13 -13 116q-40 14 -123 14q-73 0 -117 -32q-43 -31 -43 -83q0 -35 22 -57t58 -40q34 -17 82 -31q31 -9 95 -31q51 -17 94 -37q48 -22 82 -53 q36 -31 59 -78q22 -44 22 -108q0 -73 -28 -140q-26 -62 -81 -111q-52 -46 -131 -72q-80 -26 -180 -26q-188 0 -333 56v103v195h9h25h84q40 0 48 -39q3 -14 13 -120q59 -18 166 -18q42 0 77 11q34 11 54 28q21 18 30 40q10 25 10 48q0 37 -22 60q-21 23 -58 41q-33 16 -83 31 q-31 9 -95 31q-60 21 -96 38q-50 24 -83 56q-36 34 -58 83q-22 48 -22 118z" />
<glyph unicode="t" horiz-adv-x="766" d="M26 914v101l169 27l53 287q5 22 19 32q14 11 37 11h131v-331h277v-180h-277v-569q0 -49 25 -77t65 -28q23 0 40 6q11 4 27 12q12 6 21 12q7 5 19 5t18 -5q11 -9 16 -17l75 -123q-55 -46 -127 -70q-69 -23 -148 -23q-137 0 -210 77q-74 79 -74 213v587h-106q-22 0 -36 13 t-14 40z" />
<glyph unicode="u" horiz-adv-x="1290" d="M27 930v121h155h253v-668q0 -98 44 -149q45 -53 134 -53q65 0 123 29q54 27 108 81v557q-87 15 -103 18q-52 11 -52 64v121h155h1h252v-848q33 -6 104 -19q51 -10 51 -64v-120h-155h-154q-50 0 -65 46l-17 84q-31 -31 -68 -60q-32 -25 -74 -46q-38 -19 -85 -30 q-43 -10 -98 -10q-85 0 -152 29t-111 82q-45 53 -68 127q-23 75 -23 161v465q-99 17 -104 18q-51 10 -51 64z" />
<glyph unicode="v" horiz-adv-x="1258" d="M27 930v121h68h209h1h233v-121q0 -54 -51 -64q-4 -1 -19 -3.5t-38 -6.5l150 -414q15 -40 29 -96q11 -44 21 -94q10 51 21 94q12 46 30 96l153 412q-17 3 -30.5 5.5t-18.5 3.5t-10 1.5t-9 1.5q-51 10 -51 64v121h243h1h199h68v-121q0 -54 -51 -64q-18 -3 -97 -17 l-336 -849h-230l-337 849q-79 14 -97 17q-51 10 -51 64z" />
<glyph unicode="w" horiz-adv-x="1831" d="M27 930v121h84h200h1h226v-121q0 -54 -51 -64q-5 -1 -10.5 -2t-19 -3.5t-33.5 -5.5l111 -413q14 -52 20 -90q3 -14 7.5 -44t6.5 -44q1 5 10 38t14 50q26 84 28 90l174 564q5 19 24 33t43 14h112q27 0 46 -14q20 -15 25 -33l172 -574q14 -46 24 -85l21 -84q11 64 16 88 q11 53 22 91l113 411q-23 4 -39.5 7l-22 4t-11.5 2q-51 10 -51 64v121h235h1h191h85v-121q0 -53 -52 -64q-18 -3 -97 -17l-268 -849h-204q-32 0 -47 45l-190 607q-12 40 -17 60q-10 40 -13 60q-9 -45 -13 -61q-12 -46 -16 -61l-192 -605q-15 -45 -55 -45h-194l-268 849 q-79 14 -97 17q-51 10 -51 64z" />
<glyph unicode="x" horiz-adv-x="1149" d="M38 0v120q0 54 51 64q6 1 13 2t27 4t48 8l228 344l-211 311q-75 12 -84 13q-51 10 -51 64v121h1h243h1h210v-121q0 -54 -51 -64l125 -199q2 7 13 34q7 17 19 35l81 127q-4 1 -9 2t-7 1q-52 11 -52 64v121h222h233h1v-121q0 -54 -51 -64q-6 -1 -13 -2t-27 -4t-48 -8 l-208 -299l231 -355q27 -5 46.5 -8t26.5 -4t13 -2q51 -10 51 -64v-120h-8h-91h-56h-97h-204v120q0 52 48 64l-140 229q-9 -39 -25 -62l-107 -164l12 -3q52 -11 52 -64v-120h-222h-79h-56h-92h-7z" />
<glyph unicode="y" horiz-adv-x="1252" d="M27 930v121h59h222h230v-121q0 -54 -51 -64q-3 0 -16 -2t-32 -6l164 -399q13 -29 20 -56q10 -38 14 -57q3 12 18 57q11 34 21 57l153 394q-17 3 -30.5 5.5t-18.5 3.5t-10 1.5t-9 1.5q-52 11 -52 64v121h247h1h202h62v-121q0 -54 -51 -64q-18 -3 -97 -17l-486 -1138 q-12 -27 -29 -40q-19 -14 -55 -14h-188l196 421l-337 771q-66 11 -96 17q-51 10 -51 64z" />
<glyph unicode="z" horiz-adv-x="920" d="M37 0v105q0 16 8 42q8 25 26 46l503 664h-330q-9 -91 -12 -104q-8 -38 -48 -38h-84h-25h-9v323h1v13h796v-105q0 -24 -10 -52q-8 -21 -23 -42l-499 -657h367q11 99 13 110q8 38 48 38h84h25h9v-343h-28h-6h-806z" />
<glyph unicode="{" horiz-adv-x="573" d="M32 561v147q64 0 93 39q30 41 30 102q0 40 -7 96q-6 45 -15 95q-12 62 -16 97q-6 48 -6 99q0 79 22 142t69 110q44 44 118 71q69 25 167 25h55v-113q0 -14 -6 -23q-7 -10 -14 -15q-12 -8 -18 -10q-9 -3 -17 -3h-9q-72 0 -109 -45q-38 -46 -38 -124q0 -57 6 -108 q2 -19 6.5 -53.5t6.5 -46.5q1 -11 3.5 -30.5t4.5 -35.5t4 -30q7 -54 7 -95q0 -38 -11 -74q-10 -33 -32 -63q-20 -27 -50 -49t-66 -32q40 -13 66 -32q29 -21 50 -50t32 -64q11 -36 11 -72q0 -41 -7 -95q-2 -14 -4 -30t-4.5 -35.5t-3.5 -30.5t-6 -46.5t-7 -54.5 q-6 -51 -6 -108q0 -76 38 -122t109 -46h9q8 0 17 -3t18 -9q8 -5 14 -16q6 -10 6 -24v-111h-55q-98 0 -167 25q-73 26 -118 70q-46 45 -69 110q-22 63 -22 142q0 51 6 99q4 32 16 96q9 46 15 97q7 56 7 96q0 61 -30 102q-29 39 -93 39z" />
<glyph unicode="|" horiz-adv-x="308" d="M56 -343v1927h197v-1927h-197z" />
<glyph unicode="}" horiz-adv-x="573" d="M32 -204q0 15 5 24q6 10 15 16t18 9t16 3h9q73 0 110 45q38 46 38 123q0 57 -6 108q-2 19 -7 54.5t-6 46.5q-2 17 -6.5 49.5t-6.5 46.5q-6 47 -6 95q0 36 11 72q11 37 31 64q23 31 50 50q28 19 67 32q-35 10 -67 32q-29 20 -50 49q-20 27 -31 63t-11 74q0 48 6 95 q2 14 6.5 46.5t6.5 49.5q2 12 6.5 46.5t6.5 53.5q6 51 6 108q0 78 -38 124q-37 45 -110 45h-9q-7 0 -16 3q-6 2 -18 10q-9 6 -15 15q-5 8 -5 23v113h54q98 0 167 -25q74 -27 118 -71q47 -47 69 -110q23 -66 23 -142q0 -43 -7 -99q-6 -51 -15 -97q-12 -66 -16 -95 q-6 -48 -6 -96q0 -62 29 -102q29 -39 94 -39v-147q-66 0 -94 -39q-29 -40 -29 -102q0 -48 6 -96q4 -35 16 -97q9 -48 15 -96q7 -56 7 -99q0 -76 -23 -142q-23 -65 -69 -110q-45 -44 -118 -70q-69 -25 -167 -25h-54v111z" />
<glyph unicode="~" horiz-adv-x="1090" d="M51 408q0 78 21 142q21 63 61 110t96 70q59 25 131 25q55 0 104 -15q60 -18 95 -31q51 -19 83 -31q36 -14 72 -14q59 0 89 36q32 38 32 104h203q0 -78 -21 -143t-60 -110q-40 -46 -97 -70t-131 -24q-58 0 -104 14q-54 17 -94 31q-17 6 -84 32q-36 14 -71 14 q-58 0 -89 -37q-32 -38 -32 -103h-204z" />
<glyph unicode="&#xa1;" horiz-adv-x="391" d="M41 913q0 33 12 61q12 29 32 49t49 32t62 12q32 0 61 -12t49 -32q21 -21 33 -49t12 -61t-12 -61q-11 -26 -33 -48q-21 -21 -49 -33t-61 -12q-34 0 -62 12t-49 33q-20 20 -32 48t-12 61zM80 203q0 93 9 183q7 65 25 189h171q15 -104 24 -189q9 -90 9 -183v-546h-238v546z " />
<glyph unicode="&#xa2;" horiz-adv-x="954" d="M38 525q0 116 33 215q33 98 98 171q65 72 160 113q63 27 141 36l8 98l6 65q1 23 21 44q18 20 48 20h93l-13 -148v-3l-7 -75q85 -9 253 -72v-323h-9h-25h-84q-40 0 -48 38q-5 31 -17 148q-66 16 -86 18l-1 -6l-59 -689h7q61 0 98 15t63 33q29 21 44 32q20 15 43 15 q32 0 46 -23l73 -92q-44 -51 -91 -83q-51 -34 -102 -53q-57 -21 -109 -28q-48 -7 -89 -8l-10 -117l-2 -31q-1 -23 -21 -44q-18 -20 -48 -20h-93l12 135l8 95q-30 8 -52 18q-84 35 -150 106q-64 69 -102 170q-37 99 -37 230zM297 525q0 -83 18 -149q18 -65 52 -110 q18 -23 32 -35l23 273l30 347q-1 0 -2 -1q-2 -2 -4 -2q-50 -24 -83 -69q-34 -46 -50 -109t-16 -145z" />
<glyph unicode="&#xa3;" horiz-adv-x="1182" d="M37 614v81q0 35 21 60t64 25h110v242q0 94 29 183q28 86 87 151q60 66 147 103q90 38 206 38q83 0 147 -21q65 -21 116 -57q50 -35 88 -84q36 -46 64 -105l-101 -65q-32 -16 -59 -16q-37 0 -67 34q-13 15 -39 41q-18 18 -41 32t-48 21q-24 7 -60 7q-105 0 -157 -69 q-52 -68 -52 -192v-243h418v-100q0 -23 -20 -45q-20 -21 -51 -21h-347v-198q0 -67 -26 -121q-25 -51 -69 -97q72 17 151 17h600v-106q0 -17 -8 -38q-8 -20 -22 -36q-15 -16 -34 -25q-22 -10 -45 -10h-982v159q34 7 67 23q31 15 56 38q22 21 38 54q14 29 14 73v267h-195z" />
<glyph unicode="&#xa4;" horiz-adv-x="1035" d="M37 1039l128 125l153 -153q38 24 95 41q49 15 105 15q52 0 103 -14q48 -13 92 -39l155 155l126 -126l-154 -154q24 -39 41 -94q15 -49 15 -106q0 -52 -14 -102q-13 -47 -39 -91l156 -156l-128 -126l-154 154q-40 -25 -93 -41q-50 -15 -106 -15q-52 0 -102 14 q-47 13 -91 39l-157 -156l-126 127l155 153q-26 42 -42 95q-15 50 -15 105q0 53 14 103q13 46 40 92zM327 689q0 -38 15 -74q16 -38 40 -62q26 -26 61 -41t75 -15q39 0 75 15t62 41t41 62q16 38 16 74q0 38 -16 76q-15 36 -41 62t-62 41q-38 16 -75 16q-38 0 -75 -16 q-35 -15 -61 -41q-24 -24 -40 -62q-15 -36 -15 -76z" />
<glyph unicode="&#xa5;" horiz-adv-x="1221" d="M32 1481h210q35 0 58 -17q22 -16 35 -45l224 -499q21 -48 33 -85q13 -43 20 -77q7 34 20 77q13 42 33 85l222 499q12 24 34 43t57 19h212l-409 -833h283v-141h-327v-97h327v-141h-327v-269h-253v269h-327v141h327v97h-327v141h282z" />
<glyph unicode="&#xa6;" horiz-adv-x="305" d="M54 -343v827h197v-827h-197zM54 756v828h197v-828h-197z" />
<glyph unicode="&#xa7;" horiz-adv-x="925" d="M36 701q0 81 42 145t130 102q-48 42 -77 95q-30 55 -30 133q0 65 25 122t76 102t124 70q75 26 171 26q108 0 198 -36t148 -94l-57 -91q-11 -18 -21 -24q-11 -7 -29 -7q-20 0 -40 10q-6 3 -22.5 10.5t-26.5 12.5q-22 11 -63 23q-38 11 -83 11q-39 0 -76 -10 q-29 -8 -55 -27q-22 -16 -34 -39q-11 -21 -11 -48q0 -34 24 -58q23 -23 64 -46t90 -43q94 -39 104 -43q36 -15 104 -51q50 -26 91 -63q39 -35 64 -83q24 -46 24 -109q0 -83 -39 -150q-40 -68 -123 -108q45 -37 75 -88q30 -52 30 -120q0 -72 -28 -139q-27 -64 -80 -111 t-132 -73q-80 -26 -180 -26q-49 0 -106 10q-53 9 -100 27q-51 19 -88 41q-42 25 -71 51l60 96q13 19 26 27q15 9 38 9q25 0 45 -13q28 -18 49 -29q26 -14 69 -28q42 -14 100 -14q84 0 131 35q46 34 46 96q0 41 -24 71q-24 29 -66 53q-39 22 -92 42q-14 5 -50 18.5t-56 21.5 q-40 16 -105 48q-53 27 -93 62q-44 39 -66 85q-24 49 -24 116zM260 742q0 -42 30 -74q29 -31 77 -56q50 -27 107 -48q52 -19 118 -50q42 22 59 52q19 33 19 68q0 44 -29 76t-75 57q-49 27 -104 48q-61 24 -115 49q-42 -22 -66 -54q-21 -29 -21 -68z" />
<glyph unicode="&#xa8;" horiz-adv-x="763" d="M49 1323q0 33 11 56q12 26 31 45t45 31q23 11 52 11q32 0 55 -11q28 -13 46 -31q20 -20 32 -45q11 -23 11 -56q0 -31 -11 -54q-11 -24 -32 -43q-20 -18 -46 -29q-27 -11 -55 -11q-25 0 -52 11q-25 10 -45 29q-19 18 -31 43q-11 23 -11 54zM432 1323q0 33 11 56 q12 26 31 45t44 31q23 11 54 11q32 0 55 -11q28 -13 46 -31q17 -17 30 -45q12 -25 12 -56q0 -29 -12 -54q-13 -27 -30 -43q-20 -18 -46 -29q-27 -11 -55 -11q-27 0 -54 11q-23 9 -44 29q-19 18 -31 43q-11 23 -11 54z" />
<glyph unicode="&#xa9;" horiz-adv-x="1588" d="M38 740q0 104 27 202q27 96 76 180q49 83 119 153t153 119q82 49 180 76q96 27 201 27q104 0 201 -27q98 -27 181 -76t153 -119q68 -68 118 -153q49 -84 76 -180q27 -98 27 -202q0 -102 -27 -200q-27 -96 -76 -180q-50 -85 -118 -153t-153 -118q-83 -49 -181 -76 q-97 -27 -201 -27q-105 0 -201 27q-98 27 -180 76q-85 50 -153 118q-70 70 -119 153q-49 82 -76 180q-27 96 -27 200zM176 740q0 -132 48 -248q49 -119 131 -202q83 -84 196 -134q111 -49 243 -49q130 0 243 49q116 50 198 134q83 85 132 202q48 116 48 248q0 90 -22 171 q-23 86 -62 153q-41 72 -97 129q-57 59 -125 100t-148 64q-78 22 -167 22t-167 -22q-80 -23 -148 -64q-69 -42 -124 -100q-55 -59 -96 -129q-40 -69 -61 -153q-22 -86 -22 -171zM346 743q0 105 36 192t99 150t149 98q87 35 186 35q114 0 196 -38q79 -37 137 -99l-67 -91 q-9 -11 -16 -16q-11 -8 -28 -8q-18 0 -32 10q-7 5 -37 22q-22 12 -55 23q-31 10 -85 10q-60 0 -109 -20q-50 -20 -82 -57q-31 -35 -50 -91q-18 -53 -18 -120q0 -69 18 -122q19 -54 50 -90q31 -35 75 -55q42 -19 95 -19q47 0 82 8q34 8 55 19q27 15 40 23q16 11 40 17 q13 0 21 -4t15 -13l84 -89q-56 -71 -145 -111q-87 -39 -204 -39q-101 0 -186 37t-142 100q-59 65 -90 151q-32 88 -32 187z" />
<glyph unicode="&#xaa;" horiz-adv-x="648" d="M42 1026q0 35 17 69q18 36 61 64t116 48q70 19 183 22v25q0 56 -24 79q-25 23 -70 23q-37 0 -58 -7q-18 -6 -40 -17l-32 -16q-14 -7 -37 -7q-20 0 -33 10q-14 11 -21 23l-31 59q56 52 126 76q69 24 148 24q57 0 104 -18q42 -16 78 -52q31 -31 50 -78q17 -43 17 -99v-393 h-85q-21 0 -39 7q-14 6 -22 30l-13 37q-22 -20 -47 -36q-26 -17 -46 -26q-24 -11 -51 -15q-30 -5 -61 -5q-45 0 -77 11q-35 12 -60 34q-26 23 -39 54q-14 34 -14 74zM216 1035q0 -32 19 -45t55 -13q37 0 68 14q33 15 61 43v83q-61 -2 -100 -9q-38 -7 -61 -18 q-24 -11 -33 -25q-9 -13 -9 -30z" />
<glyph unicode="&#xab;" horiz-adv-x="804" d="M41 535v32l262 406l83 -39q21 -9 30 -24t9 -31q0 -22 -13 -44l-142 -241q-15 -28 -32 -43q15 -14 32 -43l142 -242q13 -22 13 -45q0 -35 -39 -53l-83 -39zM378 535v32l262 406l83 -39q21 -9 30 -24t9 -31q0 -22 -13 -44l-142 -241q-14 -26 -33 -43q17 -16 33 -43 l142 -242q13 -22 13 -45q0 -35 -39 -53l-83 -39z" />
<glyph unicode="&#xac;" horiz-adv-x="1019" d="M54 594v187h908v-477h-214v290h-694z" />
<glyph unicode="&#xad;" horiz-adv-x="648" d="M58 513v211h531v-211h-531z" />
<glyph unicode="&#xae;" horiz-adv-x="1588" d="M38 740q0 104 27 202q27 96 76 180q49 83 119 153t153 119q82 49 180 76q96 27 201 27q104 0 201 -27q98 -27 181 -76t153 -119q68 -68 118 -153q49 -84 76 -180q27 -98 27 -202q0 -102 -27 -200q-27 -96 -76 -180q-50 -85 -118 -153t-153 -118q-83 -49 -181 -76 q-97 -27 -201 -27q-105 0 -201 27q-98 27 -180 76q-85 50 -153 118q-70 70 -119 153q-49 82 -76 180q-27 96 -27 200zM176 740q0 -132 48 -248q49 -119 131 -202q83 -84 196 -134q114 -50 243 -50q128 0 243 50q116 50 198 134q83 85 132 202q48 116 48 248q0 90 -22 171 q-23 86 -62 153q-41 72 -97 129q-57 59 -125 100t-148 64q-78 22 -167 22t-167 -22q-80 -23 -148 -64q-69 -42 -124 -100q-55 -59 -96 -129q-40 -69 -61 -153q-22 -86 -22 -171zM460 284v918h328q194 0 281 -68q89 -69 89 -197q0 -91 -47 -159q-47 -69 -146 -100 q24 -14 39 -33q14 -18 30 -47l186 -314h-211q-48 0 -65 33l-147 270q-11 15 -23 22q-13 7 -39 7h-56v-332h-219zM679 773h91q52 0 86 9q35 9 53 26t26 43q7 24 7 58q0 32 -6 56q-6 23 -23 40q-16 16 -47 24q-28 7 -78 7h-109v-263z" />
<glyph unicode="&#xaf;" horiz-adv-x="720" d="M54 1243v162h613v-162h-613z" />
<glyph unicode="&#xb0;" horiz-adv-x="792" d="M41 1150q0 72 27 137t75 111q49 48 112 74q65 27 139 27q76 0 140 -27t113 -74q50 -48 76 -111q28 -67 28 -137q0 -69 -28 -134q-26 -61 -76 -111q-49 -49 -113 -76q-65 -27 -140 -27q-74 0 -139 27q-62 26 -112 76q-48 48 -75 111t-27 134zM217 1148q0 -39 13 -71 t38 -57q24 -24 56 -37q34 -14 70 -14q37 0 71 14t57 37t37 57q13 32 13 71q0 40 -13 72q-15 36 -37 58q-24 24 -57 39q-31 14 -71 14q-39 0 -70 -14t-56 -39q-24 -24 -38 -58q-13 -32 -13 -72z" />
<glyph unicode="&#xb1;" horiz-adv-x="1088" d="M46 82v187h1000v-187h-1000zM46 720v188h396v363h205v-363h399v-188h-399v-349h-205v349h-396z" />
<glyph unicode="&#xb2;" horiz-adv-x="640" d="M42 922v58q0 14 7 37q6 19 23 36l214 211q24 24 43 47q20 24 35 50q12 21 23 51q8 23 8 48q0 37 -20 60t-56 23q-32 0 -54 -17q-20 -16 -34 -48q-14 -22 -24 -28q-13 -9 -36 -9h-11q-3 0 -13 2l-101 15q18 118 93 174q76 57 191 57q60 0 106 -18q48 -18 79 -47 q32 -30 48 -70q17 -42 17 -88q0 -43 -13 -76q-15 -39 -34 -67q-17 -25 -49 -61q-36 -40 -57 -61l-131 -133q39 10 56 13q24 4 51 4h92q1 8 2 17.5t1 11.5q5 23 29 23h49h15l5 -1v-107v-95v-12h-554z" />
<glyph unicode="&#xb3;" horiz-adv-x="624" d="M35 1119l79 32q24 8 41 8q37 0 52 -29q1 -3 14 -23q7 -12 21 -22q15 -11 28 -16q17 -6 38 -6q47 0 71 26q24 25 24 61q0 29 -7 46q-8 20 -24 30q-15 11 -46 16q-25 4 -72 4v119q38 0 71 7q27 6 44 18q18 13 23 29q6 18 6 39q0 37 -20 60q-19 22 -60 22q-34 0 -56 -17 q-21 -17 -33 -43q-10 -22 -21 -31q-12 -9 -33 -9q-12 0 -27 3l-93 15q7 55 33 102q25 45 59 72q38 30 82 43q48 14 99 14q57 0 103 -17q43 -16 77 -45q32 -27 48 -63q16 -35 16 -73q0 -66 -26 -109q-27 -45 -85 -69q62 -21 93 -58q32 -38 32 -98q0 -64 -24 -109 q-25 -47 -61 -76q-35 -28 -86 -44q-48 -15 -98 -15q-53 0 -99 11q-42 10 -78 35q-34 24 -60 63q-25 38 -45 97z" />
<glyph unicode="&#xb4;" horiz-adv-x="578" d="M45 1194l145 249q15 26 36 40q22 14 62 14h246l-253 -267q-18 -20 -38 -28q-19 -8 -46 -8h-152z" />
<glyph unicode="&#xb5;" horiz-adv-x="1030" d="M58 -238v1289h253v-668q0 -97 45 -149q45 -53 133 -53q65 0 123 29q56 28 109 81v760h253v-1051h-155q-49 0 -64 46l-18 85q-30 -30 -62 -54q-28 -21 -63 -36q-30 -13 -66 -19q-40 -7 -73 -7q-57 0 -109 19t-88 52q12 -45 15 -93q4 -64 4 -90v-246h-125q-54 0 -82 27 q-30 28 -30 78z" />
<glyph unicode="&#xb6;" horiz-adv-x="1439" d="M35 1062q0 94 33 170q33 77 94 132q62 56 147 86q88 31 193 31h902v-212h-219v-1483h-221v1483h-241v-1483h-221v859q-108 0 -193 33q-84 32 -147 91q-62 57 -94 132q-33 77 -33 161z" />
<glyph unicode="&#xb7;" horiz-adv-x="491" d="M52 609q0 40 15 76q14 34 41 61q26 26 61 41t75 15t76 -15q34 -14 61 -41q28 -28 42 -61q15 -36 15 -76q0 -39 -15 -74q-14 -32 -42 -60q-27 -27 -61 -41q-36 -15 -76 -15t-75 15t-61 41t-41 60t-15 74z" />
<glyph unicode="&#xb8;" horiz-adv-x="505" d="M52 -334l24 78q6 24 28 24q5 0 15 -2q2 0 5 -1t7 -2.5t6 -2.5q11 -4 21 -5q16 -2 28 -2q35 0 51 13q17 14 17 31q0 30 -37 43q-33 12 -114 23l47 151h157l-20 -70q91 -22 128 -61q37 -38 37 -91q0 -34 -18 -61q-19 -28 -51 -47q-36 -21 -79 -31q-44 -10 -101 -10 q-43 0 -79 6q-42 7 -72 17z" />
<glyph unicode="&#xb9;" horiz-adv-x="581" d="M35 1482l238 198h153v-642h118v-116h-442v116h143v369l5 52l-79 -62q-18 -13 -35 -13q-13 0 -27 7t-18 14z" />
<glyph unicode="&#xba;" horiz-adv-x="754" d="M42 1177q0 71 25 134q24 59 68 102q42 41 106 64q60 22 138 22q75 0 135 -22q64 -23 106 -64q44 -43 68 -102q24 -60 24 -134q0 -75 -24 -137t-68 -104t-106 -65q-60 -22 -135 -22q-78 0 -138 22q-62 23 -106 65t-68 104q-25 64 -25 137zM240 1175q0 -91 33 -135t106 -44 q69 0 102 44t33 135t-33 134t-102 43q-73 0 -106 -43t-33 -134z" />
<glyph unicode="&#xbb;" horiz-adv-x="807" d="M46 223q0 21 13 43l142 242q17 29 32 43q-17 15 -32 43l-142 241q-13 22 -13 44q0 37 39 55l83 39l262 -406v-32l-262 -406l-83 39q-22 9 -30 23q-9 15 -9 32zM383 223q0 21 13 43l142 242q17 29 32 43q-17 15 -32 43l-142 241q-13 22 -13 44q0 37 39 55l83 39l262 -406 v-32l-262 -406l-83 39q-22 9 -30 23q-9 15 -9 32z" />
<glyph unicode="&#xbc;" horiz-adv-x="1435" d="M32 1283l238 199h153v-642h118v-117h-442v117h143v368l5 53l-79 -63q-16 -12 -35 -12q-16 0 -28 6t-17 14zM185 0l854 1398q23 37 56 61q31 22 77 22h108l-860 -1408q-28 -43 -57 -58q-30 -15 -69 -15h-109zM787 281l343 478h176v-470h96v-90q0 -13 -9 -24 q-9 -10 -26 -10h-61v-165h-152v165h-296q-24 0 -38 11t-17 27zM954 289h200v172q0 14 2 52q2 40 5 59z" />
<glyph unicode="&#xbd;" horiz-adv-x="1412" d="M32 1283l238 199h153v-642h118v-117h-442v117h143v368l5 53l-79 -63q-16 -12 -35 -12q-16 0 -28 6t-17 14zM143 0l854 1398q23 37 56 61q31 22 77 22h108l-860 -1408q-28 -43 -57 -58q-30 -15 -69 -15h-109zM821 0v58q0 14 7 37q6 19 23 36l214 211q20 20 43 48 q20 24 35 50q13 23 23 50q9 26 9 49q0 37 -20 60t-56 23q-33 0 -55 -17q-18 -14 -33 -49q-13 -20 -24 -28q-13 -9 -37 -9q-2 0 -5 0.5t-5 0.5q-8 0 -13 1l-102 16q18 117 94 174q75 56 190 56q62 0 106 -17q46 -18 79 -48q32 -30 48 -70q17 -42 17 -87q0 -44 -13 -77 q-15 -39 -34 -67q-20 -30 -48 -61q-18 -20 -58 -60l-131 -134q38 10 57 13q30 5 51 5h91q1 4 1.5 9.5t1 8t1 5.5t0.5 5q5 23 28 23h49h15h5v-107v-95v-13h-554z" />
<glyph unicode="&#xbe;" horiz-adv-x="1457" d="M32 921l79 31q27 9 41 9q37 0 52 -29q4 -8 14 -24q7 -12 21 -22q15 -11 28 -16q17 -6 38 -6q47 0 71 26t24 61q0 29 -7 46q-7 18 -24 30q-15 11 -46 16q-32 5 -72 5v118q38 0 71 7q27 6 44 18t23 30t6 39q0 36 -20 59q-19 22 -60 22q-36 0 -56 -16q-21 -16 -33 -44 q-11 -22 -22 -30q-13 -10 -32 -10q-12 0 -27 3l-93 16q7 56 32 101t60 73q36 29 82 42q48 14 99 14q57 0 103 -17q43 -16 77 -45q32 -28 48 -62q16 -35 16 -74q0 -66 -26 -109q-27 -45 -85 -69q62 -21 93 -58q32 -38 32 -98q0 -64 -24 -109q-24 -46 -61 -75q-37 -30 -86 -45 q-45 -14 -98 -14t-99 11q-45 11 -78 34t-60 64q-25 38 -45 97zM210 0l854 1398q24 39 55 61t78 22h108l-861 -1408q-28 -44 -56 -58q-30 -15 -70 -15h-108zM809 281l343 478h175v-470h96v-90q0 -13 -9 -24q-9 -10 -25 -10h-62v-165h-151v165h-296q-25 0 -39 11t-17 27z M976 289h200v172q0 33 1 52q2 29 6 59z" />
<glyph unicode="&#xbf;" horiz-adv-x="864" d="M38 -17q0 79 22 132q22 52 57 92q32 37 75 65q14 9 39 26t37 25q41 28 62 47q27 25 31 57l24 148h173l17 -166q2 -6 2 -10v-10q0 -47 -23 -79q-24 -34 -56 -56q-41 -29 -73 -47q-40 -23 -73 -49q-33 -25 -56 -63q-23 -37 -23 -90q0 -36 14 -66q13 -27 39 -50 q22 -20 58 -32q34 -12 74 -12q57 0 99 14q40 13 68 28q25 13 48 29q19 13 36 13q36 0 52 -31l67 -106q-45 -37 -77 -58q-44 -28 -89 -48q-48 -21 -105 -33q-52 -11 -122 -11q-92 0 -162 23q-73 24 -126 68q-51 42 -80 107q-29 64 -29 143zM321 913q0 35 11 61q12 28 33 49 t50 33q28 12 61 12q32 0 61 -12q28 -12 49 -33q20 -20 32 -49q13 -31 13 -61t-13 -61q-12 -28 -32 -48t-49 -32t-61 -12t-61 12q-31 13 -50 32q-22 22 -33 48t-11 61z" />
<glyph unicode="&#xc0;" d="M35 0v105q0 36 40 52q12 4 113 47l501 1277h282l501 -1277q101 -42 112 -47q41 -17 41 -52v-105h-73h-160h-34h-19h-214v105q0 36 40 52q2 1 7.5 3t15 6t18.5 8l-8 22l-73 201h-590l-77 -210l-4 -13q10 -4 19 -7.5t14.5 -6t6.5 -3.5q41 -17 41 -52v-105h-214h-19h-34 h-161h-72zM402 1834h281q15 0 35 -2q14 -1 26 -6q11 -4 22 -12q4 -2 22 -21l202 -207h-200q-5 0 -13.5 0.5t-11.5 0.5q-11 0 -20 3q-12 4 -18 7q-3 2 -9.5 7t-10.5 7zM606 592h448l-168 460q-9 24 -27 77q-16 48 -30 97q-3 -12 -9 -32.5t-10.5 -36.5t-8.5 -29 q-12 -39 -27 -78z" />
<glyph unicode="&#xc1;" d="M35 0v105q0 36 40 52q12 4 113 47l501 1277h282l501 -1277q101 -42 112 -47q41 -17 41 -52v-105h-73h-160h-34h-19h-214v105q0 36 40 52q2 1 7.5 3t15 6t18.5 8l-8 22l-73 201h-590l-77 -210l-4 -13q10 -4 19 -7.5t14.5 -6t6.5 -3.5q41 -17 41 -52v-105h-214h-19h-34 h-161h-72zM606 592h448l-168 460q-9 24 -27 77q-16 48 -30 97q-3 -12 -9 -32.5t-10.5 -36.5t-8.5 -29q-12 -39 -27 -78zM635 1586l201 207q16 16 23 21q11 8 22 12q13 5 25 6q20 2 35 2h282l-303 -221l-10.5 -7l-10.5 -7q-8 -4 -20 -8q-6 -2 -20 -4q-7 -1 -26 -1h-198z" />
<glyph unicode="&#xc2;" d="M35 0v105q0 36 40 52q12 4 113 47l501 1277h282l501 -1277q101 -42 112 -47q41 -17 41 -52v-105h-73h-160h-34h-19h-214v105q0 36 40 52q2 1 7.5 3t15 6t18.5 8l-8 22l-73 201h-590l-77 -210l-4 -13q10 -4 19 -7.5t14.5 -6t6.5 -3.5q41 -17 41 -52v-105h-214h-19h-34 h-161h-72zM456 1586l247 224h252l248 -224h-191q-18 0 -34 4q-15 4 -30 13l-103 68q-4 1 -8 5q-2 2 -8 6q-3 -3 -6 -5l-9 -6l-103 -68q-15 -9 -30 -13q-16 -4 -34 -4h-191zM606 592h448l-168 460q-9 24 -27 77q-16 48 -30 97q-3 -12 -9 -32.5t-10.5 -36.5t-8.5 -29 q-12 -39 -27 -78z" />
<glyph unicode="&#xc3;" d="M35 0v105q0 36 40 52q12 4 113 47l501 1277h282l501 -1277q101 -42 112 -47q41 -17 41 -52v-105h-73h-160h-34h-19h-214v105q0 36 40 52q2 1 7.5 3t15 6t18.5 8l-8 22l-73 201h-590l-77 -210l-4 -13q10 -4 19 -7.5t14.5 -6t6.5 -3.5q41 -17 41 -52v-105h-214h-19h-34 h-161h-72zM517 1581q0 53 13 93q14 44 39 73q27 32 62 48t81 16q39 0 71 -11q53 -18 66 -24q49 -21 58 -25q25 -11 48 -11q29 0 45 16q17 17 18 48h137q0 -53 -13 -93q-13 -41 -38 -72q-23 -28 -61 -46q-37 -17 -82 -17q-35 0 -71 11q-35 12 -65 25l-30 12t-29 12 q-27 12 -48 12q-27 0 -44 -17q-16 -16 -18 -50h-139zM606 592h448l-168 460q-9 24 -27 77q-16 48 -30 97q-3 -12 -9 -32.5t-10.5 -36.5t-8.5 -29q-12 -39 -27 -78z" />
<glyph unicode="&#xc4;" d="M35 0v105q0 36 40 52q12 4 113 47l501 1277h282l501 -1277q101 -42 112 -47q41 -17 41 -52v-105h-73h-160h-34h-19h-214v105q0 36 40 52q2 1 7.5 3t15 6t18.5 8l-8 22l-73 201h-590l-77 -210l-4 -13q10 -4 19 -7.5t14.5 -6t6.5 -3.5q41 -17 41 -52v-105h-214h-19h-34 h-161h-72zM471 1707q0 26 11 53q9 23 29 44q15 17 42 30q22 11 51 11q31 0 54 -11q28 -13 45 -30q19 -19 31 -44q11 -23 11 -53t-11 -52q-13 -27 -31 -43q-20 -19 -45 -29q-24 -10 -54 -10q-28 0 -51 10t-42 29q-18 18 -29 43t-11 52zM606 592h448l-168 460q-9 24 -27 77 q-16 48 -30 97q-3 -12 -9 -32.5t-10.5 -36.5t-8.5 -29q-12 -39 -27 -78zM913 1707q0 26 11 53q10 24 30 44q18 18 44 30q23 11 53 11t53 -11q29 -14 44 -30q20 -21 29 -44q11 -27 11 -53q0 -27 -11 -52t-29 -43t-44 -29q-24 -10 -53 -10t-53 10q-23 9 -44 29q-19 17 -30 43 q-11 25 -11 52z" />
<glyph unicode="&#xc5;" d="M35 0v105q0 36 40 52q12 4 113 47l501 1277h282l501 -1277q101 -42 112 -47q41 -17 41 -52v-105h-73h-160h-34h-19h-214v105q0 36 40 52q2 1 7.5 3t15 6t18.5 8l-8 22l-73 201h-590l-77 -210l-4 -13q10 -4 19 -7.5t14.5 -6t6.5 -3.5q41 -17 41 -52v-105h-214h-19h-34 h-161h-72zM606 592h448l-168 460q-9 24 -27 77q-16 48 -30 97q-3 -12 -9 -32.5t-10.5 -36.5t-8.5 -29q-12 -39 -27 -78zM618 1723q0 44 18 80q19 38 46 62q27 25 66 40q35 14 80 14q47 0 83 -14q40 -15 69 -40q28 -24 47 -62q17 -34 17 -80q0 -44 -17 -78q-18 -37 -47 -61 q-30 -26 -69 -39q-40 -14 -83 -14q-41 0 -80 14q-38 13 -66 39q-28 25 -46 61t-18 78zM739 1723q0 -39 24 -65t69 -26q42 0 66 26q25 27 25 65q0 43 -25 68t-66 25q-44 0 -69 -25q-24 -24 -24 -68z" />
<glyph unicode="&#xc6;" horiz-adv-x="1974" d="M36 0v105q0 36 40 52q25 10 101 42l556 1093q-2 1 -6 1.5t-6 0.5t-6 0.5t-6 1.5q-51 10 -51 64v121h170h5h1094v-143h2v-246h-9h-24h-85q-39 0 -47 38q-4 24 -15 132h-532l51 -411h506v-212h-481l52 -419h404q11 108 15 132q8 38 47 38h85h25h8v-246h-2v-144h-812h-4 h-151v120q0 54 51 64q1 0 3.5 0.5l7.5 1.5t11 2q7 1 25 4.5t29 5.5l-21 167h-532l-90 -186q11 -5 23.5 -10.5t18.5 -8t9 -3.5q41 -17 41 -52v-105h-233h-18h-16h-193h-40zM628 559h414l-88 717q-17 -54 -34 -98q-27 -69 -35 -85z" />
<glyph unicode="&#xc7;" horiz-adv-x="1304" d="M29 740q0 168 55 306t156 239q100 101 240 156q141 56 308 56q185 0 465 -107v-131v-15v-231h-9h-25h-84q-40 0 -48 38q-4 26 -18 163q-166 49 -282 49h-1q-103 0 -192 -37q-86 -36 -150 -104q-62 -66 -98 -164t-36 -218q0 -124 36 -222q37 -100 95 -164q60 -66 143 -102 q80 -35 176 -35q57 0 102 6q43 6 84 20q37 13 72 34q33 20 68 52q11 10 22 15q10 5 25 5q22 0 38 -17l109 -118q-90 -111 -222 -171q-108 -48 -252 -57l-11 -42q91 -22 128 -61q37 -38 37 -91q0 -34 -18 -61q-19 -28 -51 -47q-36 -21 -79 -31q-44 -10 -101 -10q-43 0 -79 6 q-42 7 -72 17l24 78q6 24 28 24q5 0 15 -2l9 -3l9 -3q11 -4 21 -5q16 -2 28 -2q35 0 51 13q17 14 17 31q0 30 -37 43q-33 12 -114 23l38 126q-110 12 -203 51q-133 57 -225 157q-94 102 -143 239q-49 138 -49 304z" />
<glyph unicode="&#xc8;" horiz-adv-x="1175" d="M41 0v120q0 54 51 64q5 2 13 3q2 0 7 1t11 2t13 2t27 4.5t33 6.5v1075q-14 3 -33.5 6t-26.5 4q-25 5 -31 6q-2 0 -5 0.5t-5 1t-3 0.5q-51 10 -51 64v121h155h934v-143v-76v-170h-9h-25h-84q-40 0 -48 38q-4 24 -15 132h-475v-411h500v-212h-500v-419h475q11 108 15 132 q8 38 48 38h84h25h9v-170v-76v-144h-934h-155zM251 1834h281q15 0 35 -2q14 -1 26 -6q11 -4 22 -12q4 -2 22 -21l202 -207h-200q-5 0 -13.5 0.5t-11.5 0.5q-11 0 -20 3q-12 4 -18 7q-3 2 -9.5 7t-10.5 7z" />
<glyph unicode="&#xc9;" horiz-adv-x="1175" d="M41 0v120q0 54 51 64q5 2 13 3q2 0 7 1t11 2t13 2t27 4.5t33 6.5v1075q-14 3 -33.5 6t-26.5 4q-25 5 -31 6q-2 0 -5 0.5t-5 1t-3 0.5q-51 10 -51 64v121h155h934v-143v-76v-170h-9h-25h-84q-40 0 -48 38q-4 24 -15 132h-475v-411h500v-212h-500v-419h475q11 108 15 132 q8 38 48 38h84h25h9v-170v-76v-144h-934h-155zM484 1586l201 207q16 16 23 21q11 8 22 12q13 5 25 6q20 2 35 2h282l-303 -221l-10.5 -7l-10.5 -7q-8 -4 -20 -8q-6 -2 -20 -4q-7 -1 -26 -1h-198z" />
<glyph unicode="&#xca;" horiz-adv-x="1175" d="M41 0v120q0 54 51 64q5 2 13 3q2 0 7 1t11 2t13 2t27 4.5t33 6.5v1075q-14 3 -33.5 6t-26.5 4q-25 5 -31 6q-2 0 -5 0.5t-5 1t-3 0.5q-51 10 -51 64v121h155h934v-143v-76v-170h-9h-25h-84q-40 0 -48 38q-4 24 -15 132h-475v-411h500v-212h-500v-419h475q11 108 15 132 q8 38 48 38h84h25h9v-170v-76v-144h-934h-155zM305 1586l247 224h252l248 -224h-191q-18 0 -34 4q-15 4 -30 13l-103 68q-4 1 -8 5q-2 2 -8 6q-3 -3 -6 -5l-9 -6l-103 -68q-15 -9 -30 -13q-16 -4 -34 -4h-191z" />
<glyph unicode="&#xcb;" horiz-adv-x="1175" d="M41 0v120q0 54 51 64q5 2 13 3q2 0 7 1t11 2t13 2t27 4.5t33 6.5v1075q-14 3 -33.5 6t-26.5 4q-25 5 -31 6q-2 0 -5 0.5t-5 1t-3 0.5q-51 10 -51 64v121h155h934v-143v-76v-170h-9h-25h-84q-40 0 -48 38q-4 24 -15 132h-475v-411h500v-212h-500v-419h475q11 108 15 132 q8 38 48 38h84h25h9v-170v-76v-144h-934h-155zM320 1707q0 26 11 53q9 23 29 44q15 17 42 30q22 11 51 11q31 0 54 -11q28 -13 45 -30q19 -19 31 -44q11 -23 11 -53t-11 -52q-13 -27 -31 -43q-20 -19 -45 -29q-24 -10 -54 -10q-28 0 -51 10t-42 29q-18 18 -29 43t-11 52z M762 1707q0 26 11 53q10 24 30 44q18 18 44 30q23 11 53 11t53 -11q29 -14 44 -30q20 -21 29 -44q11 -27 11 -53q0 -27 -11 -52t-29 -43q-19 -18 -44 -29q-24 -10 -53 -10t-53 10q-23 9 -44 29q-19 17 -30 43q-11 25 -11 52z" />
<glyph unicode="&#xcc;" horiz-adv-x="778" d="M23 1834h280q15 0 35 -2q14 -1 26 -6q11 -4 22 -12q7 -5 23 -21l201 -207h-199q-5 0 -13.5 0.5t-11.5 0.5q-11 0 -20 3q-15 5 -19 7q-3 2 -9.5 7t-10.5 7zM151 0v120q0 54 51 64q5 2 13 3q2 0 7 1t11 2t13 2t27 4.5t33 6.5v1075q-14 3 -33.5 6t-26.5 4q-25 5 -31 6 q-12 2 -13 2q-51 10 -51 64v121h155h277h155v-121q0 -54 -51 -64q-1 0 -3 -0.5t-5 -1t-5 -0.5q-6 -1 -31 -6q-7 -1 -26.5 -4t-33.5 -6v-1075q13 -3 33 -6.5t27 -4.5t13 -2t11 -2t7 -1q8 -1 13 -3q51 -10 51 -64v-120h-155h-277h-155z" />
<glyph unicode="&#xcd;" horiz-adv-x="755" d="M41 0v120q0 54 51 64q5 2 13 3q2 0 7 1t11 2t13 2t27 4.5t33 6.5v1075q-14 3 -33.5 6t-26.5 4q-25 5 -31 6q-12 2 -13 2q-51 10 -51 64v121h155h277h155v-121q0 -53 -52 -64l-12 -2q-6 -1 -31 -6q-7 -1 -26.5 -4t-33.5 -6v-1075q13 -3 33 -6.5t27 -4.5t13 -2t11 -2t7 -1 q6 -1 12 -3q52 -11 52 -64v-120h-155h-277h-155zM145 1586l201 207q16 16 23 21q11 8 22 12q13 5 25 6q20 2 35 2h282l-303 -221l-10.5 -7l-10.5 -7q-8 -4 -20 -8q-6 -2 -20 -4q-7 -1 -25 -1h-199z" />
<glyph unicode="&#xce;" horiz-adv-x="793" d="M23 1586l247 224h252l248 -224h-191q-18 0 -34 4q-15 4 -30 13l-103 68q-4 1 -8 5q-2 2 -8 6q-3 -3 -6 -5l-9 -6l-103 -68q-15 -9 -30 -13q-16 -4 -34 -4h-191zM99 0v120q0 54 51 64q5 2 13 3q2 0 7 1t10.5 2t12.5 2t27 4.5t34 6.5v1075q-14 3 -34 6t-27 4q-6 1 -13 2.5 t-10.5 2.5t-6.5 1q-12 2 -13 2q-51 10 -51 64v121h155h276h156v-121q0 -53 -52 -64q-1 0 -3 -0.5t-5 -1t-5 -0.5q-3 0 -6.5 -1t-10.5 -2.5t-13 -2.5q-7 -1 -27 -4t-34 -6v-1075q14 -3 34 -6.5t27 -4.5t12.5 -2t10.5 -2t7 -1q8 -1 13 -3q52 -11 52 -64v-120h-156h-276h-155z " />
<glyph unicode="&#xcf;" horiz-adv-x="762" d="M23 1707q0 29 10 53q9 23 29 44q15 16 43 30q22 11 51 11q31 0 54 -11q28 -13 45 -30q19 -19 31 -44q11 -23 11 -53t-11 -52q-13 -27 -31 -43q-20 -19 -45 -29q-24 -10 -54 -10q-28 0 -51 10q-25 11 -43 29t-29 43q-10 23 -10 52zM83 0v120q0 53 52 64q5 2 13 3q2 0 7 1 t10.5 2t12.5 2t27 4.5t34 6.5v1075q-14 3 -34 6t-27 4q-6 1 -13 2.5t-10.5 2.5t-6.5 1q-12 2 -13 2q-52 11 -52 64v121h156h276h155v-121q0 -54 -51 -64q-1 0 -3 -0.5t-5 -1t-5 -0.5q-3 0 -6.5 -1t-10.5 -2.5t-13 -2.5q-7 -1 -27 -4t-34 -6v-1075q14 -3 34 -6.5t27 -4.5 t12.5 -2t10.5 -2t7 -1q8 -1 13 -3q51 -10 51 -64v-120h-155h-276h-156zM465 1707q0 26 11 53q11 26 29 44t44 30q23 11 53 11q31 0 54 -11q27 -13 43 -30q21 -23 30 -44q10 -24 10 -53t-10 -52t-30 -43q-19 -19 -43 -29t-54 -10q-29 0 -53 10q-23 9 -44 29q-17 16 -29 43 q-11 25 -11 52z" />
<glyph unicode="&#xd0;" horiz-adv-x="1549" d="M41 667v156h184v455q-99 17 -104 18q-51 10 -51 64v121h155h543q169 0 306 -55q138 -56 237 -153t153 -234t54 -299t-54 -299q-53 -134 -153 -234q-99 -99 -237 -153t-306 -54h-543h-155v120q0 54 51 64q71 13 104 19v464h-184zM503 219h265q108 0 195 36q88 36 147 103 q61 68 93 164q33 97 33 218q0 122 -33 219q-32 96 -93 164q-59 67 -147 103q-87 36 -195 36h-265v-439h369v-156h-369v-448z" />
<glyph unicode="&#xd1;" horiz-adv-x="1631" d="M41 0v120q0 54 51 64q5 2 13 3q2 0 7 1t11 2t13 2t27 4.5t33 6.5v1075q-14 3 -33.5 6t-26.5 4q-25 5 -31 6q-2 0 -5 0.5t-5 1t-3 0.5q-51 10 -51 64v121h155h144q15 0 31 -2q11 -1 22 -6q12 -6 19 -13q13 -13 21 -23l777 -991q-4 36 -6 71q-1 23 -1 64v697q-36 5 -70 9.5 t-48 6.5t-16 2q-51 10 -51 64v121h185h242h155v-121q0 -54 -51 -64q-1 0 -3 -0.5t-5 -1t-5 -0.5q-3 0 -6.5 -1t-10.5 -2.5t-13 -2.5q-7 -1 -27 -4t-34 -6v-1278h-142q-34 0 -54 10q-22 11 -42 37l-774 986q2 -21 4 -65t2 -59v-706q131 -18 133 -19q51 -10 51 -64v-120h-184 h-243h-155zM525 1581q0 53 13 93q14 44 39 73q28 33 61 48q35 16 81 16q40 0 72 -11q53 -18 66 -24q49 -21 58 -25q25 -11 48 -11q29 0 45 16q17 17 18 48h137q0 -49 -14 -93q-14 -43 -37 -72q-23 -28 -61 -46q-37 -17 -82 -17q-35 0 -71 11q-35 12 -65 25l-30 12t-29 12 q-27 12 -48 12q-28 0 -45 -17q-15 -15 -17 -50h-139z" />
<glyph unicode="&#xd2;" horiz-adv-x="1561" d="M29 740q0 162 54 302q53 137 153 240q98 101 238 158t306 57q168 0 306 -57q137 -57 237 -158q99 -100 153 -240t54 -302t-54 -301q-53 -137 -153 -240q-99 -102 -237 -159q-136 -56 -306 -56q-169 0 -306 56q-139 57 -238 159q-100 103 -153 240q-54 139 -54 301z M310 740q0 -120 33 -218q33 -97 94 -164t148 -103t195 -36t195 36q88 36 147 103q61 68 93 164q32 95 32 218q0 124 -32 219q-32 96 -93 164t-147 104q-87 36 -195 36t-195 -36q-85 -35 -148 -104q-61 -67 -94 -164t-33 -219zM355 1834h281q15 0 35 -2q14 -1 26 -6 q11 -4 22 -12q4 -2 22 -21l202 -207h-200q-5 0 -13.5 0.5t-11.5 0.5q-11 0 -20 3q-12 4 -18 7l-10.5 7l-10.5 7z" />
<glyph unicode="&#xd3;" horiz-adv-x="1561" d="M29 740q0 162 54 302q53 137 153 240q98 101 238 158t306 57q168 0 306 -57q137 -57 237 -158q99 -100 153 -240t54 -302t-54 -301q-53 -137 -153 -240q-99 -102 -237 -159q-136 -56 -306 -56q-169 0 -306 56q-139 57 -238 159q-100 103 -153 240q-54 139 -54 301z M310 740q0 -120 33 -218q33 -97 94 -164t148 -103t195 -36t195 36q88 36 147 103q61 68 93 164q32 95 32 218q0 124 -32 219q-32 96 -93 164t-147 104q-87 36 -195 36t-195 -36q-85 -35 -148 -104q-61 -67 -94 -164t-33 -219zM588 1586l200 207q14 14 24 21q11 8 22 12 q13 5 25 6q20 2 35 2h282l-304 -221l-10.5 -7l-10.5 -7q-10 -5 -19 -8q-6 -2 -20 -4q-7 -1 -26 -1h-198z" />
<glyph unicode="&#xd4;" horiz-adv-x="1561" d="M29 740q0 162 54 302q53 137 153 240q98 101 238 158t306 57q168 0 306 -57q137 -57 237 -158q99 -100 153 -240t54 -302t-54 -301q-53 -137 -153 -240q-99 -102 -237 -159q-136 -56 -306 -56q-169 0 -306 56q-139 57 -238 159q-100 103 -153 240q-54 139 -54 301z M310 740q0 -120 33 -218q33 -97 94 -164t148 -103t195 -36t195 36q88 36 147 103q61 68 93 164q32 95 32 218q0 124 -32 219q-32 96 -93 164t-147 104q-87 36 -195 36t-195 -36q-85 -35 -148 -104q-61 -67 -94 -164t-33 -219zM409 1586l247 224h252l248 -224h-191 q-18 0 -34 4q-15 4 -30 13l-103 68q-5 1 -8 5q-2 2 -8 6q-3 -3 -6 -5l-9 -6l-103 -68q-15 -9 -30 -13q-16 -4 -34 -4h-191z" />
<glyph unicode="&#xd5;" horiz-adv-x="1561" d="M29 740q0 162 54 302q53 137 153 240q98 101 238 158t306 57q168 0 306 -57q137 -57 237 -158q99 -100 153 -240t54 -302t-54 -301q-53 -137 -153 -240q-99 -102 -237 -159q-136 -56 -306 -56q-169 0 -306 56q-139 57 -238 159q-100 103 -153 240q-54 139 -54 301z M310 740q0 -120 33 -218q33 -97 94 -164t148 -103t195 -36t195 36q88 36 147 103q61 68 93 164q32 95 32 218q0 124 -32 219q-32 96 -93 164t-147 104q-87 36 -195 36t-195 -36q-85 -35 -148 -104q-61 -67 -94 -164t-33 -219zM470 1581q0 53 13 93q14 44 39 73q27 32 62 48 t81 16q39 0 71 -11q53 -18 66 -24q49 -21 58 -25q25 -11 48 -11q29 0 45 16q17 17 18 48h137q0 -53 -13 -93q-13 -41 -38 -72q-23 -28 -61 -46q-37 -17 -82 -17q-35 0 -71 11q-35 12 -65 25l-30 12t-29 12q-27 12 -48 12q-27 0 -44 -17q-16 -16 -18 -50h-139z" />
<glyph unicode="&#xd6;" horiz-adv-x="1561" d="M29 740q0 162 54 302q53 137 153 240q98 101 238 158t306 57q168 0 306 -57q137 -57 237 -158q99 -100 153 -240t54 -302t-54 -301q-53 -137 -153 -240q-99 -102 -237 -159q-136 -56 -306 -56q-169 0 -306 56q-139 57 -238 159q-100 103 -153 240q-54 139 -54 301z M310 740q0 -120 33 -218q33 -97 94 -164t148 -103t195 -36t195 36q88 36 147 103q61 68 93 164q32 95 32 218q0 124 -32 219q-32 96 -93 164t-147 104q-87 36 -195 36t-195 -36q-85 -35 -148 -104q-61 -67 -94 -164t-33 -219zM424 1707q0 26 11 53q9 23 29 44q15 17 42 30 q22 11 51 11q31 0 54 -11q28 -13 45 -30q19 -19 31 -44q11 -23 11 -53t-11 -52q-13 -27 -31 -43q-20 -19 -45 -29q-24 -10 -54 -10q-28 0 -51 10t-42 29q-18 18 -29 43t-11 52zM866 1707q0 26 11 53q10 24 30 44q18 18 44 30q23 11 53 11t53 -11q29 -14 44 -30 q20 -21 29 -44q11 -27 11 -53q0 -27 -11 -52t-29 -43q-19 -18 -44 -29q-24 -10 -53 -10t-53 10q-23 9 -44 29q-19 17 -30 43q-11 25 -11 52z" />
<glyph unicode="&#xd7;" horiz-adv-x="1012" d="M24 337l350 350l-335 335l133 133l335 -335l332 333l134 -133l-333 -333l349 -348l-134 -132l-348 347l-349 -349z" />
<glyph unicode="&#xd8;" horiz-adv-x="1560" d="M29 740q0 162 54 302q53 137 153 240q98 101 238 158t306 57q111 0 212 -26q102 -26 183 -74l60 84q14 18 25 31q13 15 24 21q18 10 28 12q15 3 38 3h141l-183 -252q105 -101 164 -244q58 -141 58 -312q0 -162 -54 -301q-53 -137 -153 -240q-99 -102 -237 -159 q-136 -56 -306 -56q-102 0 -194 21q-86 20 -171 63l-78 -108q-30 -41 -71 -57q-43 -17 -81 -17h-108l199 275q-117 100 -182 251q-65 150 -65 328zM310 740q0 -118 30 -211q30 -92 87 -160l603 829q-107 65 -250 65q-108 0 -195 -36q-85 -35 -148 -104q-61 -67 -94 -164 t-33 -219zM559 266q99 -47 221 -47q108 0 195 36q88 36 147 103q61 68 93 164q32 95 32 218q0 106 -24 192t-70 151z" />
<glyph unicode="&#xd9;" horiz-adv-x="1600" d="M31 1360v121h155h275h164v-121q0 -54 -51 -64q-1 0 -3.5 -0.5t-5.5 -1t-6 -0.5q-13 -2 -35 -6q-7 -1 -17 -2.5t-23.5 -4t-22.5 -3.5v-683q0 -83 23 -154q22 -69 66 -117t106 -75q63 -27 143 -27t143 27q64 27 107 75q44 49 66 116q23 71 23 154v684q-14 3 -35.5 6 t-27.5 4q-22 4 -35 6q-3 0 -6 0.5t-5.5 1t-3.5 0.5q-51 10 -51 64v121h164h276h155v-121q0 -53 -52 -64q-1 0 -2.5 -0.5t-2.5 -0.5t-3 -0.5t-4 -0.5q-6 -1 -31 -6q-7 -1 -26.5 -4t-33.5 -6v-684q0 -129 -43 -244q-42 -112 -122 -194q-81 -82 -194 -127q-114 -45 -256 -45 t-256 45q-112 44 -193 127q-80 82 -122 194q-42 113 -42 244v684q-14 3 -34 6t-27 4q-6 1 -13 2.5t-10.5 2.5t-6.5 1q-2 0 -5 0.5t-5 1t-3 0.5q-51 10 -51 64zM373 1834h281q15 0 35 -2q14 -1 26 -6q11 -4 22 -12q3 -2 22 -21l202 -207h-200q-5 0 -13.5 0.5t-11.5 0.5 q-11 0 -20 3q-12 4 -18 7l-10.5 7l-10.5 7z" />
<glyph unicode="&#xda;" horiz-adv-x="1600" d="M31 1360v121h155h275h164v-121q0 -54 -51 -64q-1 0 -3.5 -0.5t-5.5 -1t-6 -0.5q-13 -2 -35 -6q-7 -1 -17 -2.5t-23.5 -4t-22.5 -3.5v-683q0 -83 23 -154q22 -69 66 -117t106 -75q63 -27 143 -27t143 27q64 27 107 75q44 49 66 116q23 71 23 154v684q-14 3 -35.5 6 t-27.5 4q-22 4 -35 6q-3 0 -6 0.5t-5.5 1t-3.5 0.5q-51 10 -51 64v121h164h276h155v-121q0 -53 -52 -64q-1 0 -2.5 -0.5t-2.5 -0.5t-3 -0.5t-4 -0.5q-6 -1 -31 -6q-7 -1 -26.5 -4t-33.5 -6v-684q0 -129 -43 -244q-42 -112 -122 -194q-81 -82 -194 -127q-114 -45 -256 -45 t-256 45q-112 44 -193 127q-80 82 -122 194q-42 113 -42 244v684q-14 3 -34 6t-27 4q-6 1 -13 2.5t-10.5 2.5t-6.5 1q-2 0 -5 0.5t-5 1t-3 0.5q-51 10 -51 64zM606 1586l200 207q16 16 23 21q11 8 22 12q12 5 26 6q20 2 35 2h281l-303 -221l-10.5 -7l-10.5 -7q-10 -5 -19 -8 q-5 -2 -21 -4q-7 -1 -25 -1h-198z" />
<glyph unicode="&#xdb;" horiz-adv-x="1600" d="M31 1360v121h155h275h164v-121q0 -54 -51 -64q-1 0 -3.5 -0.5t-5.5 -1t-6 -0.5q-13 -2 -35 -6q-7 -1 -17 -2.5t-23.5 -4t-22.5 -3.5v-683q0 -83 23 -154q22 -69 66 -117t106 -75q63 -27 143 -27t143 27q64 27 107 75q44 49 66 116q23 71 23 154v684q-14 3 -35.5 6 t-27.5 4q-22 4 -35 6q-3 0 -6 0.5t-5.5 1t-3.5 0.5q-51 10 -51 64v121h164h276h155v-121q0 -53 -52 -64q-1 0 -2.5 -0.5t-2.5 -0.5t-3 -0.5t-4 -0.5q-6 -1 -31 -6q-7 -1 -26.5 -4t-33.5 -6v-684q0 -129 -43 -244q-42 -112 -122 -194q-81 -82 -194 -127q-114 -45 -256 -45 t-256 45q-112 44 -193 127q-80 82 -122 194q-42 113 -42 244v684q-14 3 -34 6t-27 4q-6 1 -13 2.5t-10.5 2.5t-6.5 1q-2 0 -5 0.5t-5 1t-3 0.5q-51 10 -51 64zM425 1586l248 224h252l248 -224h-192q-17 0 -33 4q-15 4 -30 13l-103 68q-4 1 -8 5q-2 2 -8 6q-3 -3 -6 -5l-9 -6 l-104 -68q-15 -10 -29 -13q-16 -4 -34 -4h-192z" />
<glyph unicode="&#xdc;" horiz-adv-x="1600" d="M31 1360v121h155h275h164v-121q0 -54 -51 -64q-1 0 -3.5 -0.5t-5.5 -1t-6 -0.5q-13 -2 -35 -6q-7 -1 -17 -2.5t-23.5 -4t-22.5 -3.5v-683q0 -83 23 -154q22 -69 66 -117t106 -75q63 -27 143 -27t143 27q64 27 107 75q44 49 66 116q23 71 23 154v684q-14 3 -35.5 6 t-27.5 4q-22 4 -35 6q-3 0 -6 0.5t-5.5 1t-3.5 0.5q-51 10 -51 64v121h164h276h155v-121q0 -53 -52 -64q-1 0 -2.5 -0.5t-2.5 -0.5t-3 -0.5t-4 -0.5q-6 -1 -31 -6q-7 -1 -26.5 -4t-33.5 -6v-684q0 -129 -43 -244q-42 -112 -122 -194q-81 -82 -194 -127q-114 -45 -256 -45 t-256 45q-112 44 -193 127q-80 82 -122 194q-42 113 -42 244v684q-14 3 -34 6t-27 4q-6 1 -13 2.5t-10.5 2.5t-6.5 1q-2 0 -5 0.5t-5 1t-3 0.5q-51 10 -51 64zM441 1707q0 26 11 53q9 23 29 44q15 17 42 30q22 11 51 11q31 0 54 -11q28 -13 45 -30q19 -19 31 -44 q11 -23 11 -53t-11 -52q-13 -27 -31 -43q-20 -19 -45 -29q-24 -10 -54 -10q-28 0 -51 10t-42 29q-18 18 -29 43t-11 52zM883 1707q0 26 11 53q10 24 30 44q18 18 44 30q23 11 52 11q31 0 54 -11q29 -14 44 -30q20 -21 29 -44q11 -27 11 -53q0 -27 -11 -52t-29 -43t-44 -29 q-24 -10 -54 -10q-28 0 -52 10q-23 9 -44 29q-19 17 -30 43q-11 25 -11 52z" />
<glyph unicode="&#xdd;" horiz-adv-x="1486" d="M32 1360v121h34h36h85h121h277v-121q0 -54 -51 -64q-2 0 -10 -2l-7 -2q-7 -2 -12 -3q-3 -1 -13 -3.5t-16 -3.5l196 -357q14 -25 41 -84q9 -19 32 -77q13 39 30 78q18 45 40 83l195 357q-7 2 -30 7q-5 1 -12 3l-7 2q-8 2 -10 2q-51 10 -51 64v121h276h122h85h36h34v-121 q0 -54 -51 -64q-2 -1 -6.5 -1.5t-6.5 -0.5l-30 -6q-10 -2 -60 -10l-418 -703v-372q13 -3 33 -6.5t27 -4.5t13 -2t11 -2t7 -1q6 -1 12 -3q52 -11 52 -64v-120h-155h-276h-155v120q0 53 52 64q6 2 12 3q2 0 7 1t11 2t13 2t27 4.5t33 6.5v372l-418 703q-14 3 -34 6t-27 4l-30 6 q-12 2 -13 2q-51 10 -51 64zM551 1586l201 207q16 16 23 21q11 8 22 12q13 5 25 6q20 2 35 2h282l-303 -221l-10.5 -7l-10.5 -7q-8 -4 -20 -8q-6 -2 -20 -4q-7 -1 -25 -1h-199z" />
<glyph unicode="&#xde;" horiz-adv-x="1143" d="M55 0v1481h276v-254h207q147 0 257 -35t179 -97t104 -150q34 -86 34 -190q0 -107 -36 -197q-37 -92 -107 -155q-72 -64 -179 -100q-108 -36 -252 -36h-207v-267h-276zM331 482h207q76 0 132 19q55 19 93 55q37 36 55 86q19 54 19 113q0 56 -19 107q-18 48 -55 82t-93 52 q-57 18 -132 18h-207v-532z" />
<glyph unicode="&#xdf;" horiz-adv-x="1132" d="M49 0v1008q0 106 38 199t106 158q70 67 168 104t225 37q118 0 205 -35q85 -35 138 -87q55 -55 78 -112q24 -60 24 -113q0 -58 -20 -101q-19 -42 -50 -74q-28 -29 -65 -55q-10 -7 -32 -22t-33 -23q-28 -20 -50 -45q-20 -23 -20 -53q0 -34 25 -58q23 -22 64 -48 q5 -3 83 -50q48 -29 83 -65q38 -39 63 -93q26 -55 26 -133q0 -89 -32 -153q-33 -67 -88 -111q-57 -46 -128 -68q-75 -23 -156 -23q-47 0 -93 9t-88 27q-51 22 -81 41q-35 23 -68 52l59 96q10 18 26 27q15 9 39 9q23 0 45 -14q6 -4 47 -28q29 -17 58 -29q32 -13 79 -13 q65 0 104 38q40 39 40 100q0 49 -27 80t-69 57q-37 23 -90 49q-52 26 -90 56q-43 33 -69 79q-27 46 -27 116q0 59 21 101q20 40 54 74q36 36 70 59q24 16 70 54q32 26 54 59q21 31 21 75q0 36 -11 64q-11 29 -38 52q-25 22 -66 36q-39 13 -97 13q-134 0 -203 -82 q-69 -83 -69 -242v-999h-253z" />
<glyph unicode="&#xe0;" horiz-adv-x="1065" d="M27 271q0 60 31 118t104 105q70 45 193 77q120 31 300 31v62q0 107 -44 157q-45 51 -130 51q-64 0 -102 -14q-46 -17 -71 -32q-11 -7 -30 -17.5t-26 -14.5q-25 -15 -56 -15q-25 0 -44 14q-21 16 -30 32l-46 81q181 166 437 166q92 0 164 -30q74 -31 123 -84 q51 -56 76 -129q26 -76 26 -163v-466q34 -6 54 -9q6 -1 11 -2l7.5 -1.5t3.5 -0.5q51 -11 51 -65v-120h-127h-28h-86q-34 0 -56 11q-21 10 -31 43l-22 75q-46 -41 -78 -63q-38 -26 -80 -45q-44 -20 -87 -28q-46 -9 -102 -9q-66 0 -123 18q-56 18 -97 54q-41 37 -63 89 q-22 53 -22 124zM175 1497h237q42 0 62 -14q21 -14 35 -40l146 -249h-144q-28 0 -47 8t-36 28zM268 285q0 -67 40 -96t103 -29q40 0 71 7q34 8 62 21q31 15 57 35q29 22 54 49v176q-109 0 -185 -14q-69 -13 -119 -36q-43 -20 -64 -51q-19 -28 -19 -62z" />
<glyph unicode="&#xe1;" horiz-adv-x="1064" d="M27 271q0 60 31 118t104 105q70 45 193 77q120 31 300 31v62q0 107 -44 157q-45 51 -130 51q-64 0 -102 -14q-46 -17 -71 -32q-11 -7 -30 -17.5t-26 -14.5q-25 -15 -56 -15q-25 0 -44 14q-21 16 -30 32l-46 81q181 166 437 166q92 0 164 -30q74 -31 123 -84 q51 -56 76 -129q26 -76 26 -163v-466q34 -6 54 -9q6 -1 11 -2l7.5 -1.5t3.5 -0.5q51 -11 51 -65v-120h-127h-28h-86q-34 0 -56 11q-21 10 -31 43l-22 75q-46 -41 -78 -63q-38 -26 -80 -45q-44 -20 -87 -28q-46 -9 -102 -9q-66 0 -123 18q-56 18 -97 54q-41 37 -63 89 q-22 53 -22 124zM268 285q0 -67 40 -96t103 -29q40 0 71 7q34 8 62 21q31 15 57 35q29 22 54 49v176q-109 0 -185 -14q-69 -13 -119 -36q-43 -20 -64 -51q-19 -28 -19 -62zM369 1194l145 249q15 26 36 40q22 14 61 14h246l-253 -267q-19 -21 -37 -28q-19 -8 -47 -8h-151z " />
<glyph unicode="&#xe2;" horiz-adv-x="1064" d="M27 271q0 60 31 118t104 105q70 45 193 77q120 31 300 31v62q0 107 -44 157q-45 51 -130 51q-64 0 -102 -14q-46 -17 -71 -32q-11 -7 -30 -17.5t-26 -14.5q-25 -15 -56 -15q-25 0 -44 14q-21 16 -30 32l-46 81q181 166 437 166q92 0 164 -30q74 -31 123 -84 q51 -56 76 -129q26 -76 26 -163v-466q34 -6 54 -9q6 -1 11 -2l7.5 -1.5t3.5 -0.5q51 -11 51 -65v-120h-127h-28h-86q-34 0 -56 11q-21 10 -31 43l-22 75q-46 -41 -78 -63q-38 -26 -80 -45q-44 -20 -87 -28q-46 -9 -102 -9q-66 0 -123 18q-56 18 -97 54q-41 37 -63 89 q-22 53 -22 124zM149 1196l235 285h238l234 -285h-169q-31 0 -51 18l-108 98l-10 10q-7 5 -11 12q-4 -7 -11 -12q-4 -3 -11 -10l-109 -98q-4 -4 -22 -12q-14 -6 -29 -6h-176zM268 285q0 -67 40 -96t103 -29q40 0 71 7q34 8 62 21q31 15 57 35q29 22 54 49v176 q-109 0 -185 -14q-69 -13 -119 -36q-43 -20 -64 -51q-19 -28 -19 -62z" />
<glyph unicode="&#xe3;" horiz-adv-x="1064" d="M27 271q0 60 31 118t104 105q70 45 193 77q120 31 300 31v62q0 107 -44 157q-45 51 -130 51q-64 0 -102 -14q-46 -17 -71 -32q-11 -7 -30 -17.5t-26 -14.5q-25 -15 -56 -15q-25 0 -44 14q-21 16 -30 32l-46 81q181 166 437 166q92 0 164 -30q74 -31 123 -84 q51 -56 76 -129q26 -76 26 -163v-466q34 -6 54 -9q6 -1 11 -2l7.5 -1.5t3.5 -0.5q51 -11 51 -65v-120h-127h-28h-86q-34 0 -56 11q-21 10 -31 43l-22 75q-46 -41 -78 -63q-38 -26 -80 -45q-44 -20 -87 -28q-46 -9 -102 -9q-66 0 -123 18q-56 18 -97 54q-41 37 -63 89 q-22 53 -22 124zM177 1222q0 59 16 104q16 46 45 79q30 35 67 52q41 19 83 19q35 0 69 -14q36 -15 60 -28q10 -6 27.5 -15.5t23.5 -13.5q23 -13 44 -13q29 0 48 17q18 17 18 60h153q0 -61 -15 -103q-16 -46 -44 -80q-28 -35 -66 -52q-37 -17 -84 -17q-39 0 -69 13 q-38 16 -59 28q-36 20 -52 29q-23 13 -45 13q-30 0 -46 -17q-17 -19 -17 -61h-157zM268 285q0 -67 40 -96t103 -29q40 0 71 7q34 8 62 21q31 15 57 35q29 22 54 49v176q-109 0 -185 -14q-69 -13 -119 -36q-43 -20 -64 -51q-19 -28 -19 -62z" />
<glyph unicode="&#xe4;" horiz-adv-x="1064" d="M27 271q0 60 31 118t104 105q70 45 193 77q120 31 300 31v62q0 107 -44 157q-45 51 -130 51q-64 0 -102 -14q-46 -17 -71 -32q-11 -7 -30 -17.5t-26 -14.5q-25 -15 -56 -15q-25 0 -44 14q-21 16 -30 32l-46 81q181 166 437 166q92 0 164 -30q74 -31 123 -84 q51 -56 76 -129q26 -76 26 -163v-466q34 -6 54 -9q6 -1 11 -2l7.5 -1.5t3.5 -0.5q51 -11 51 -65v-120h-127h-28h-86q-34 0 -56 11q-21 10 -31 43l-22 75q-46 -41 -78 -63q-38 -26 -80 -45q-44 -20 -87 -28q-46 -9 -102 -9q-66 0 -123 18q-56 18 -97 54q-41 37 -63 89 q-22 53 -22 124zM170 1323q0 33 11 56q12 26 31 45t44 31q23 11 53 11q32 0 55 -11q28 -13 46 -31q19 -19 31 -45q12 -25 12 -56q0 -29 -12 -54t-31 -43q-20 -18 -46 -29q-27 -11 -55 -11q-26 0 -53 11q-23 9 -44 29q-19 18 -31 43q-11 23 -11 54zM268 285q0 -67 40 -96 t103 -29q40 0 71 7q34 8 62 21q31 15 57 35q29 22 54 49v176q-109 0 -185 -14q-69 -13 -119 -36q-43 -20 -64 -51q-19 -28 -19 -62zM553 1323q0 33 11 56q13 28 30 45q19 19 45 31q23 11 54 11q32 0 55 -11q28 -13 46 -31q17 -17 30 -45q12 -25 12 -56q0 -29 -12 -54 q-13 -27 -30 -43q-20 -18 -46 -29q-27 -11 -55 -11q-27 0 -54 11q-25 10 -45 29q-17 16 -30 43q-11 23 -11 54z" />
<glyph unicode="&#xe5;" horiz-adv-x="1064" d="M27 271q0 60 31 118t104 105q70 45 193 77q120 31 300 31v62q0 107 -44 157q-45 51 -130 51q-64 0 -102 -14q-46 -17 -71 -32q-11 -7 -30 -17.5t-26 -14.5q-25 -15 -56 -15q-25 0 -44 14q-21 16 -30 32l-46 81q181 166 437 166q92 0 164 -30q74 -31 123 -84 q51 -56 76 -129q26 -76 26 -163v-466q34 -6 54 -9q6 -1 11 -2l7.5 -1.5t3.5 -0.5q51 -11 51 -65v-120h-127h-28h-86q-34 0 -56 11q-21 10 -31 43l-22 75q-46 -41 -78 -63q-38 -26 -80 -45q-44 -20 -87 -28q-46 -9 -102 -9q-66 0 -123 18q-56 18 -97 54q-41 37 -63 89 q-22 53 -22 124zM268 285q0 -67 40 -96t103 -29q40 0 71 7q34 8 62 21q31 15 57 35q29 22 54 49v176q-109 0 -185 -14q-69 -13 -119 -36q-43 -20 -64 -51q-19 -28 -19 -62zM275 1357q0 45 19 86q18 38 50 66q34 29 72 43q43 16 86 16t88 -16q41 -15 74 -43q30 -26 50 -66 q19 -38 19 -86q0 -47 -19 -84q-21 -40 -50 -65q-31 -27 -74 -42q-42 -15 -88 -15q-45 0 -86 15q-40 15 -72 42t-50 65q-19 40 -19 84zM413 1357q0 -39 24 -65t69 -26q41 0 65 26q25 27 25 65q0 41 -25 68q-24 25 -65 25q-45 0 -69 -25t-24 -68z" />
<glyph unicode="&#xe6;" horiz-adv-x="1596" d="M27 282q0 60 31 119t104 109q69 47 193 81q119 32 300 37v36q0 106 -44 159q-46 55 -130 55q-63 0 -102 -16t-71 -35q-47 -28 -56 -34q-25 -16 -56 -16q-25 0 -44 14t-30 32l-46 81q93 84 190 125t219 41q119 0 195 -45q75 -44 116 -124q58 76 145 121t205 45 q91 0 166 -34q76 -35 132 -99q57 -66 88 -157q32 -93 32 -207q0 -28 -3 -47t-9 -30q-6 -10 -17 -15q-12 -5 -28 -5h-612q15 -152 85 -222q71 -71 184 -71q68 0 113 14q49 15 73 29q28 17 48 30q19 13 41 13q18 0 30 -6q15 -8 21 -17l68 -86q-41 -48 -93 -83 q-51 -34 -105 -53q-61 -21 -111 -28q-61 -8 -109 -8q-111 0 -209 50q-95 48 -159 156q-29 -53 -76 -94q-44 -38 -99 -64t-116 -38q-56 -11 -124 -11q-77 0 -137 19t-104 57t-66 93q-23 57 -23 129zM268 294q0 -71 40 -104q39 -32 110 -32q50 0 93 15q45 16 76 48 q33 34 50 83q18 51 18 122v47q-110 -4 -184 -21q-81 -18 -120 -39q-43 -23 -64 -55q-19 -29 -19 -64zM896 626h443q0 50 -12 97q-12 48 -37 83q-27 38 -64 58q-41 22 -91 22q-108 0 -167 -68q-58 -68 -72 -192z" />
<glyph unicode="&#xe7;" horiz-adv-x="941" d="M31 527q0 116 33 215q33 98 98 171q65 72 160 113q96 41 219 41q128 0 331 -76l-1 -323h-8h-25h-84q-40 0 -48 38q-6 32 -17 148q-82 20 -133 20q-68 0 -117 -24q-50 -24 -83 -69q-34 -46 -50 -109t-16 -145q0 -83 18 -149q18 -67 51 -110q35 -46 82 -68q49 -23 109 -23 t98 15t63 33q13 9 44 33q18 14 43 14q32 0 46 -23l72 -92q-44 -51 -91 -83q-51 -34 -102 -53q-57 -21 -109 -28q-23 -4 -39 -5l-12 -44q91 -22 128 -61q37 -38 37 -91q0 -34 -18 -61q-19 -29 -50 -47q-36 -21 -79 -31q-44 -10 -102 -10q-42 0 -78 6q-42 7 -72 17l23 78 q6 24 29 24q5 0 15 -2q3 -1 8.5 -3t8.5 -3q11 -4 22 -5q16 -2 28 -2q35 0 51 13q17 14 17 31q0 30 -37 43q-33 12 -114 23l8 25l6 21l25 83q-50 8 -100 29q-84 35 -150 106q-63 67 -101 170q-37 99 -37 230z" />
<glyph unicode="&#xe8;" horiz-adv-x="1021" d="M31 548q0 106 35 202q34 94 99 165q64 69 159 111q94 41 212 41q97 0 182 -32q86 -32 144 -92q59 -61 94 -150q34 -87 34 -202q0 -35 -2 -48q-2 -16 -10 -29q-7 -12 -17 -16q-11 -4 -29 -4h-649q12 -163 87 -238q76 -76 200 -76q61 0 106 15q54 18 78 31q5 3 27 14.5 t32 17.5q24 14 48 14q15 0 27 -6t19 -17l74 -92q-43 -51 -94 -83q-55 -34 -109 -53q-61 -21 -116 -28q-62 -8 -114 -8q-110 0 -204 36q-93 35 -164 108q-68 69 -109 176q-40 104 -40 243zM214 1497h237q42 0 62 -14q21 -14 35 -40l146 -249h-144q-28 0 -47 8t-36 28z M288 646h475q0 51 -13 93t-41 76q-26 31 -70 52q-41 19 -98 19q-110 0 -173 -63q-62 -62 -80 -177z" />
<glyph unicode="&#xe9;" horiz-adv-x="1021" d="M31 548q0 106 35 202q34 94 99 165q64 69 159 111q94 41 212 41q97 0 182 -32q86 -32 144 -92q59 -61 94 -150q34 -87 34 -202q0 -35 -2 -48q-2 -16 -10 -29q-7 -12 -17 -16q-11 -4 -29 -4h-649q12 -163 87 -238q76 -76 200 -76q61 0 106 15q54 18 78 31q5 3 27 14.5 t32 17.5q24 14 48 14q15 0 27 -6t19 -17l74 -92q-43 -51 -94 -83q-55 -34 -109 -53q-61 -21 -116 -28q-62 -8 -114 -8q-110 0 -204 36q-93 35 -164 108q-68 69 -109 176q-40 104 -40 243zM288 646h475q0 51 -13 93t-41 76q-26 31 -70 52q-41 19 -98 19q-110 0 -173 -63 q-62 -62 -80 -177zM408 1194l145 249q15 26 36 40q22 14 61 14h246l-253 -267q-19 -21 -37 -28q-19 -8 -47 -8h-151z" />
<glyph unicode="&#xea;" horiz-adv-x="1021" d="M31 548q0 106 35 202q34 94 99 165q64 69 159 111q94 41 212 41q97 0 182 -32q86 -32 144 -92q59 -61 94 -150q34 -87 34 -202q0 -35 -2 -48q-2 -16 -10 -29q-7 -12 -17 -16q-11 -4 -29 -4h-649q12 -163 87 -238q76 -76 200 -76q61 0 106 15q54 18 78 31q5 3 27 14.5 t32 17.5q24 14 48 14q15 0 27 -6t19 -17l74 -92q-43 -51 -94 -83q-55 -34 -109 -53q-61 -21 -116 -28q-62 -8 -114 -8q-110 0 -204 36q-93 35 -164 108q-68 69 -109 176q-40 104 -40 243zM188 1196l235 285h237l235 -285h-169q-32 0 -51 18l-108 98l-10 10q-7 5 -11 12 q-4 -7 -11 -12q-4 -3 -11 -10l-109 -98q-4 -4 -22 -12q-13 -6 -29 -6h-176zM288 646h475q0 51 -13 93t-41 76q-26 31 -70 52q-41 19 -98 19q-110 0 -173 -63q-62 -62 -80 -177z" />
<glyph unicode="&#xeb;" horiz-adv-x="1021" d="M31 548q0 106 35 202q34 94 99 165q64 69 159 111q94 41 212 41q97 0 182 -32q86 -32 144 -92q59 -61 94 -150q34 -87 34 -202q0 -35 -2 -48q-2 -16 -10 -29q-7 -12 -17 -16q-11 -4 -29 -4h-649q12 -163 87 -238q76 -76 200 -76q61 0 106 15q54 18 78 31q5 3 27 14.5 t32 17.5q24 14 48 14q15 0 27 -6t19 -17l74 -92q-43 -51 -94 -83q-55 -34 -109 -53q-61 -21 -116 -28q-62 -8 -114 -8q-110 0 -204 36q-93 35 -164 108q-68 69 -109 176q-40 104 -40 243zM209 1323q0 33 11 56q12 26 31 45t44 31q23 11 53 11q32 0 55 -11q28 -13 46 -31 q19 -19 31 -45q12 -25 12 -56q0 -29 -12 -54t-31 -43q-20 -18 -46 -29q-27 -11 -55 -11q-26 0 -53 11q-23 9 -44 29q-19 18 -31 43q-11 23 -11 54zM288 646h475q0 51 -13 93t-41 76q-26 31 -70 52q-41 19 -98 19q-110 0 -173 -63q-62 -62 -80 -177zM592 1323q0 33 11 56 q13 28 30 45q19 19 45 31q23 11 54 11q32 0 55 -11q28 -13 46 -31q17 -17 30 -45q12 -25 12 -56q0 -29 -12 -54q-13 -27 -30 -43q-20 -18 -46 -29q-27 -11 -55 -11q-27 0 -54 11q-25 10 -45 29q-17 16 -30 43q-11 23 -11 54z" />
<glyph unicode="&#xec;" horiz-adv-x="659" d="M23 1497h236q42 0 62 -14q21 -14 35 -40l147 -249h-145q-27 0 -46 8q-20 8 -37 28zM61 0v120q0 54 51 64q5 2 13 3q2 0 7 1t11 2t13 2t27 4.5t33 6.5v645q-14 3 -33.5 6t-26.5 4q-25 5 -31 6q-2 0 -5 0.5t-5 1t-3 0.5q-51 10 -51 64v121h155h253v-848q14 -3 34 -6.5 t27 -4.5t12.5 -2t10.5 -2t7 -1q8 -1 13 -3q51 -10 51 -64v-120h-155h-253h-155z" />
<glyph unicode="&#xed;" horiz-adv-x="704" d="M38 0v120q0 54 51 64q5 2 13 3q2 0 7 1t10.5 2t12.5 2t27 4.5t34 6.5v645q-14 3 -34 6t-27 4q-6 1 -13 2.5t-10.5 2.5t-6.5 1q-2 0 -5 0.5t-5 1t-3 0.5q-51 10 -51 64v121h155h253v-848q13 -3 33 -6.5t27 -4.5t13 -2t11 -2t7 -1q8 -1 13 -3q51 -10 51 -64v-120h-155h-253 h-155zM193 1194l145 249q15 26 36 40q22 14 62 14h245l-252 -267q-18 -20 -38 -28q-19 -8 -46 -8h-152z" />
<glyph unicode="&#xee;" horiz-adv-x="752" d="M23 1196l234 285h238l234 -285h-169q-32 0 -51 18l-108 98l-10 10q-7 5 -11 12q-4 -7 -11 -12q-4 -3 -11 -10l-109 -98q-4 -4 -22 -12q-13 -6 -29 -6h-175zM87 0v120q0 54 51 64q5 2 13 3q2 0 7 1t10.5 2t12.5 2t27 4.5t34 6.5v645q-14 3 -34 6t-27 4l-30 6q-2 0 -5 0.5 t-5 1t-3 0.5q-51 10 -51 64v121h155h253v-848q13 -3 33 -6.5t27 -4.5t13 -2t11 -2t7 -1q6 -1 12 -3q52 -11 52 -64v-120h-155h-253h-155z" />
<glyph unicode="&#xef;" horiz-adv-x="718" d="M27 1323q0 33 11 56q12 26 31 45t44 31q23 11 53 11q32 0 55 -11q28 -13 46 -31q19 -19 31 -45q11 -23 11 -56q0 -31 -11 -54q-12 -25 -31 -43q-20 -18 -46 -29q-27 -11 -55 -11q-26 0 -53 11q-23 9 -44 29q-19 18 -31 43q-11 23 -11 54zM70 0v120q0 54 51 64q5 2 13 3 q2 0 7 1t11 2t13 2t27 4.5t33 6.5v645q-14 3 -33.5 6t-26.5 4q-25 5 -31 6q-2 0 -5 0.5t-5 1t-3 0.5q-51 10 -51 64v121h155h253v-848q14 -3 34 -6.5t27 -4.5l30 -5q8 -1 13 -3q51 -10 51 -64v-120h-155h-253h-155zM410 1323q0 33 11 56q13 28 30 45q19 19 45 31 q23 11 54 11q32 0 55 -11q26 -12 45 -31t31 -45q11 -23 11 -56q0 -31 -11 -54q-12 -25 -31 -43q-20 -19 -45 -29q-27 -11 -55 -11q-27 0 -54 11q-25 10 -45 29q-17 16 -30 43q-11 23 -11 54z" />
<glyph unicode="&#xf0;" horiz-adv-x="1085" d="M29 485q0 95 33 180t94 149q60 63 147 101t193 38q99 0 178 -35q80 -36 143 -103q-21 107 -73 187q-52 79 -138 137l-203 -131l-47 79q-10 16 -10 34q0 31 33 49l77 44q-26 11 -69 25q-5 2 -77 23q-26 8 -42 25q-17 19 -17 49q0 14 8 43l30 87q106 -18 199 -49 q91 -30 181 -82l180 117l50 -82q10 -17 10 -32t-7 -26q-9 -15 -22 -21l-83 -47q61 -54 105 -116q46 -64 81 -141q34 -75 52 -168q18 -91 18 -196q0 -149 -35 -269q-35 -119 -100 -201q-65 -81 -165 -125q-98 -43 -226 -43q-107 0 -197 34q-92 35 -158 99q-66 65 -105 157 q-38 91 -38 210zM280 483q0 -73 20 -131q20 -57 54 -96q36 -40 80 -59q48 -20 100 -20q57 0 109 22q49 21 87 69q37 47 59 123q22 75 25 184q-15 37 -39 72q-22 32 -57 59q-32 25 -75 40q-42 15 -96 15q-63 0 -115 -22q-49 -21 -84 -59q-31 -34 -51 -88q-17 -47 -17 -109z " />
<glyph unicode="&#xf1;" horiz-adv-x="1300" d="M38 0v120q0 54 51 64q5 2 13 3q2 0 7 1t10.5 2t12.5 2t27 4.5t34 6.5v645q-14 3 -34 6t-27 4q-6 1 -13 2.5t-10.5 2.5t-6.5 1q-2 0 -5 0.5t-5 1t-3 0.5q-51 10 -51 64v121h155h155q49 0 64 -46l18 -83q29 31 67 59q36 27 74 46t85 30q43 10 98 10q86 0 153 -29 q65 -28 111 -82q44 -52 67 -126q23 -75 23 -161v-466q14 -3 34 -6.5t27 -4.5l30 -5q8 -1 13 -3q52 -11 52 -64v-120h-156h-252v669q0 97 -45 149t-134 52q-68 0 -123 -29q-57 -30 -108 -81v-557q13 -3 33 -6.5t27 -4.5t13 -2t11 -2t7 -1q8 -1 13 -3q51 -10 51 -64v-120h-155 h-253h-155zM324 1222q0 59 16 104q16 46 45 79q30 35 67 52q41 19 83 19q35 0 69 -14q36 -15 60 -28q10 -6 27.5 -15.5t23.5 -13.5q23 -13 44 -13q29 0 48 17q18 17 18 60h153q0 -61 -15 -103q-16 -46 -44 -80q-28 -35 -66 -52q-37 -17 -84 -17q-39 0 -69 13q-38 16 -59 28 q-36 20 -52 29q-23 13 -45 13q-30 0 -46 -17q-17 -19 -17 -61h-157z" />
<glyph unicode="&#xf2;" horiz-adv-x="1101" d="M31 527q0 126 37 225q37 100 106 170q68 69 164 107q97 38 214 38q116 0 213 -38q96 -38 164 -107q66 -67 104 -170q37 -99 37 -225t-37 -225q-38 -102 -104 -171q-67 -70 -164 -108t-213 -38q-117 0 -214 38t-164 108q-69 72 -106 171t-37 225zM225 1497h237 q42 0 62 -14q21 -14 35 -40l147 -249h-145q-27 0 -46 8q-20 8 -37 28zM292 525q0 -169 63 -257q63 -89 197 -89q131 0 194 88q63 89 63 258q0 171 -63 259q-63 89 -194 89q-135 0 -197 -89q-63 -90 -63 -259z" />
<glyph unicode="&#xf3;" horiz-adv-x="1101" d="M31 527q0 126 37 225q37 100 106 170q68 69 164 107q97 38 214 38q116 0 213 -38q96 -38 164 -107q66 -67 104 -170q37 -99 37 -225t-37 -225q-38 -102 -104 -171q-67 -70 -164 -108t-213 -38q-117 0 -214 38t-164 108q-69 72 -106 171t-37 225zM292 525q0 -169 63 -257 q63 -89 197 -89q131 0 194 88q63 89 63 258q0 171 -63 259q-63 89 -194 89q-135 0 -197 -89q-63 -90 -63 -259zM419 1194l145 249q15 26 36 40q22 14 62 14h245l-253 -267q-19 -21 -37 -28q-19 -8 -47 -8h-151z" />
<glyph unicode="&#xf4;" horiz-adv-x="1101" d="M31 527q0 126 37 225q37 100 106 170q68 69 164 107q97 38 214 38q116 0 213 -38q96 -38 164 -107q66 -67 104 -170q37 -99 37 -225t-37 -225q-38 -102 -104 -171q-67 -70 -164 -108t-213 -38q-117 0 -214 38t-164 108q-69 72 -106 171t-37 225zM200 1196l234 285h238 l234 -285h-169q-31 0 -51 18l-107 98q-7 7 -11 10q-7 5 -11 12q-4 -7 -11 -12l-10 -10l-110 -98q-4 -4 -22 -12q-14 -6 -29 -6h-175zM292 525q0 -169 63 -257q63 -89 197 -89q131 0 194 88q63 89 63 258q0 171 -63 259q-63 89 -194 89q-135 0 -197 -89q-63 -90 -63 -259z " />
<glyph unicode="&#xf5;" horiz-adv-x="1101" d="M31 527q0 126 37 225q37 100 106 170q68 69 164 107q97 38 214 38q116 0 213 -38q96 -38 164 -107q66 -67 104 -170q37 -99 37 -225t-37 -225q-38 -102 -104 -171q-67 -70 -164 -108t-213 -38q-117 0 -214 38t-164 108q-69 72 -106 171t-37 225zM227 1222q0 59 16 104 q16 46 45 79q30 35 67 52q41 19 83 19q35 0 69 -14q36 -15 60 -28q10 -6 27.5 -15.5t23.5 -13.5q23 -13 45 -13q29 0 48 17q17 16 17 60h154q0 -58 -16 -103q-16 -46 -44 -80q-28 -35 -66 -52q-37 -17 -84 -17q-39 0 -69 13q-38 16 -59 28q-36 20 -52 29q-23 13 -45 13 q-30 0 -46 -17q-17 -19 -17 -61h-157zM292 525q0 -169 63 -257q63 -89 197 -89q131 0 194 88q63 89 63 258q0 171 -63 259q-63 89 -194 89q-135 0 -197 -89q-63 -90 -63 -259z" />
<glyph unicode="&#xf6;" horiz-adv-x="1100" d="M30 527q0 126 37 225q37 100 106 170q68 69 164 107q97 38 214 38q116 0 213 -38q96 -38 164 -107q66 -67 104 -170q37 -99 37 -225t-37 -225q-38 -102 -104 -171q-67 -70 -164 -108t-213 -38q-117 0 -214 38t-164 108q-69 72 -106 171t-37 225zM219 1323q0 33 11 56 q12 26 31 45t45 31q23 11 52 11q32 0 55 -11q28 -13 46 -31q19 -19 31 -45q12 -25 12 -56q0 -29 -12 -54t-31 -43q-20 -18 -46 -29q-27 -11 -55 -11q-25 0 -52 11q-25 10 -45 29q-19 18 -31 43q-11 23 -11 54zM291 525q0 -169 63 -257q63 -89 197 -89q131 0 194 88 q63 89 63 258q0 171 -63 259q-63 89 -194 89q-135 0 -197 -89q-63 -90 -63 -259zM602 1323q0 33 11 56q12 26 31 45t44 31q23 11 54 11q32 0 55 -11q28 -13 46 -31q17 -17 30 -45q12 -25 12 -56q0 -25 -12 -54q-13 -27 -30 -43q-20 -18 -46 -29q-27 -11 -55 -11 q-27 0 -54 11q-23 9 -44 29q-19 18 -31 43q-11 23 -11 54z" />
<glyph unicode="&#xf7;" horiz-adv-x="1068" d="M33 594v187h999v-187h-999zM377 323q0 31 12 60t32 49q21 21 49 33t61 12t61 -12q29 -12 50 -33t33 -49q12 -29 12 -60q0 -33 -12 -61t-33 -49q-19 -19 -50 -32q-28 -12 -61 -12t-61 12q-29 12 -49 32t-32 49t-12 61zM377 1052q0 32 12 60q12 29 32 49q21 21 49 33t61 12 t61 -12q29 -12 50 -33t33 -49t12 -60t-12 -61q-12 -28 -33 -49q-19 -19 -50 -32q-28 -12 -61 -12t-61 12q-29 12 -49 32t-32 49t-12 61z" />
<glyph unicode="&#xf8;" horiz-adv-x="1144" d="M25 -79l157 214q-66 69 -103 170q-36 99 -36 222q0 126 37 225q37 100 106 170q68 69 164 107q97 38 214 38q73 0 139 -15q63 -14 121 -44l58 76q3 4 8 11t8.5 12t7.5 9q13 15 24 21q15 8 28 11q20 4 38 4h125l-175 -238q64 -69 101 -168q35 -95 35 -219q0 -129 -36 -225 q-38 -100 -105 -171q-68 -71 -163 -108q-97 -38 -214 -38q-79 0 -139 14q-62 14 -121 44l-35 -48q-30 -41 -71 -57q-43 -17 -80 -17h-93zM288 525q0 -121 33 -201l385 522q-58 35 -142 35q-134 0 -205 -93q-71 -94 -71 -263zM423 204q57 -33 141 -33q131 0 202 92 q72 93 72 262q0 51 -9 110q-7 47 -23 88z" />
<glyph unicode="&#xf9;" horiz-adv-x="1289" d="M27 930v121h155h253v-668q0 -98 44 -149q45 -53 134 -53q65 0 123 29q54 27 108 81v557q-87 15 -103 18q-52 11 -52 64v121h155h1h252v-848q33 -6 104 -19q51 -10 51 -64v-120h-155h-154q-50 0 -65 46l-17 84q-31 -31 -68 -60q-32 -25 -74 -46q-38 -19 -85 -30 q-43 -10 -98 -10q-85 0 -152 29t-111 82q-45 53 -68 127q-23 75 -23 161v465q-99 17 -104 18q-51 10 -51 64zM320 1497h237q41 0 61 -14q22 -16 36 -40l146 -249h-144q-28 0 -47 8t-36 28z" />
<glyph unicode="&#xfa;" horiz-adv-x="1288" d="M27 930v121h155h253v-668q0 -98 44 -149q45 -53 134 -53q65 0 123 29q54 27 108 81v557q-87 15 -103 18q-52 11 -52 64v121h155h1h252v-848q33 -6 104 -19q51 -10 51 -64v-120h-155h-154q-50 0 -65 46l-17 84q-31 -31 -68 -60q-32 -25 -74 -46q-38 -19 -85 -30 q-43 -10 -98 -10q-85 0 -152 29t-111 82q-45 53 -68 127q-23 75 -23 161v465q-99 17 -104 18q-51 10 -51 64zM514 1194l145 249q15 26 36 40q22 14 61 14h246l-253 -267q-19 -21 -37 -28q-19 -8 -47 -8h-151z" />
<glyph unicode="&#xfb;" horiz-adv-x="1288" d="M27 930v121h155h253v-668q0 -98 44 -149q45 -53 134 -53q65 0 123 29q54 27 108 81v557q-87 15 -103 18q-52 11 -52 64v121h155h1h252v-848q33 -6 104 -19q51 -10 51 -64v-120h-155h-154q-50 0 -65 46l-17 84q-31 -31 -68 -60q-32 -25 -74 -46q-38 -19 -85 -30 q-43 -10 -98 -10q-85 0 -152 29t-111 82q-45 53 -68 127q-23 75 -23 161v465q-99 17 -104 18q-51 10 -51 64zM294 1196l235 285h237l235 -285h-169q-32 0 -51 18l-108 98q-7 7 -11 10q-5 4 -10 12q-4 -7 -11 -12q-4 -3 -11 -10l-109 -98q-4 -4 -22 -12q-13 -6 -30 -6h-175z " />
<glyph unicode="&#xfc;" horiz-adv-x="1288" d="M27 930v121h155h253v-668q0 -98 44 -149q45 -53 134 -53q65 0 123 29q54 27 108 81v557q-87 15 -103 18q-52 11 -52 64v121h155h1h252v-848q33 -6 104 -19q51 -10 51 -64v-120h-155h-154q-50 0 -65 46l-17 84q-31 -31 -68 -60q-32 -25 -74 -46q-38 -19 -85 -30 q-43 -10 -98 -10q-85 0 -152 29t-111 82q-45 53 -68 127q-23 75 -23 161v465q-99 17 -104 18q-51 10 -51 64zM315 1323q0 33 11 56q12 26 31 45t44 31q23 11 53 11q32 0 55 -11q28 -13 46 -31q19 -19 31 -45q11 -23 11 -56q0 -31 -11 -54q-12 -25 -31 -43q-20 -18 -46 -29 q-27 -11 -55 -11q-26 0 -53 11q-23 9 -44 29q-19 18 -31 43q-11 23 -11 54zM698 1323q0 33 11 56q13 28 30 45q19 19 45 31q23 11 54 11q32 0 55 -11q26 -12 45 -31t31 -45q11 -23 11 -56q0 -27 -11 -54q-12 -25 -31 -43q-20 -19 -45 -29q-27 -11 -55 -11q-27 0 -54 11 q-25 10 -45 29q-17 16 -30 43q-11 23 -11 54z" />
<glyph unicode="&#xfd;" horiz-adv-x="1251" d="M27 930v121h59h222h230v-121q0 -54 -51 -64q-3 0 -16 -2t-32 -6l164 -399q13 -29 20 -56q10 -38 14 -57q3 12 18 57q11 34 21 57l153 394q-17 3 -30.5 5.5t-18.5 3.5t-10 1.5t-9 1.5q-52 11 -52 64v121h247h1h202h62v-121q0 -54 -51 -64q-18 -3 -97 -17l-486 -1138 q-12 -27 -29 -40q-19 -14 -55 -14h-188l196 421l-337 771q-66 11 -96 17q-51 10 -51 64zM511 1194l146 249q15 26 36 40q22 14 61 14h246l-253 -267q-18 -20 -38 -28q-19 -8 -46 -8h-152z" />
<glyph unicode="&#xfe;" horiz-adv-x="1054" d="M55 -343v1865h253v-600q65 68 142 106q80 39 184 39q88 0 157 -35q74 -38 123 -103q52 -68 80 -167q28 -97 28 -228q0 -117 -32 -219q-32 -101 -90 -174q-58 -72 -143 -115q-82 -41 -187 -41q-43 0 -83 8q-37 7 -69 24q-36 19 -59 38q-29 24 -51 49v-447h-253zM308 272 q44 -54 94 -74q51 -21 109 -21q55 0 104 22q45 20 79 65q30 39 49 111q18 67 18 159t-15 156q-14 61 -43 104q-26 39 -67 58q-39 18 -89 18q-79 0 -135 -33q-55 -33 -104 -94v-471z" />
<glyph unicode="&#xff;" horiz-adv-x="1251" d="M27 930v121h59h222h230v-121q0 -54 -51 -64q-3 0 -16 -2t-32 -6l164 -399q13 -29 20 -56q10 -38 14 -57q3 12 18 57q11 34 21 57l153 394q-17 3 -30.5 5.5t-18.5 3.5t-10 1.5t-9 1.5q-52 11 -52 64v121h247h1h202h62v-121q0 -54 -51 -64q-18 -3 -97 -17l-486 -1138 q-12 -27 -29 -40q-19 -14 -55 -14h-188l196 421l-337 771q-66 11 -96 17q-51 10 -51 64zM313 1323q0 33 11 56q12 26 31 45t44 31q23 11 53 11q32 0 55 -11q28 -13 46 -31q19 -19 31 -45q11 -23 11 -56q0 -31 -11 -54q-12 -25 -31 -43q-20 -18 -46 -29q-27 -11 -55 -11 q-26 0 -53 11q-23 9 -44 29q-19 18 -31 43q-11 23 -11 54zM696 1323q0 33 11 56q13 28 30 45q19 19 45 31q23 11 54 11q32 0 55 -11q26 -12 45 -31t31 -45q11 -23 11 -56q0 -31 -11 -54q-12 -25 -31 -43q-20 -19 -45 -29q-27 -11 -55 -11q-27 0 -54 11q-25 10 -45 29 q-17 16 -30 43q-11 23 -11 54z" />
<glyph unicode="&#x152;" horiz-adv-x="2131" d="M29 740q0 162 48 302q47 135 138 240q86 100 214 158q124 57 275 57q148 0 270 -54q121 -54 210 -152v190h901v-142v-77v-170h-9h-25h-84q-40 0 -48 38q-4 19 -15 132h-476v-411h501v-212h-501v-419h476q11 114 15 133q8 38 48 38h84h25h9v-171v-76v-144h-901v189 q-87 -95 -210 -150q-120 -54 -270 -54t-275 57q-127 58 -214 157q-91 103 -138 240q-48 138 -48 301zM310 740q0 -120 29 -219q28 -95 84 -167q52 -67 133 -105q78 -37 177 -37q98 0 175 37q80 38 132 105q55 70 83 167q29 99 29 219q0 121 -29 220q-28 97 -83 167 q-53 68 -132 106q-77 37 -175 37q-99 0 -177 -37q-79 -37 -133 -106q-56 -72 -84 -167q-29 -99 -29 -220z" />
<glyph unicode="&#x153;" horiz-adv-x="1721" d="M31 527q0 125 36 225q37 104 99 170q66 70 154 107q91 38 197 38q126 0 223 -53q96 -52 156 -150q58 94 151 148q94 55 224 55q91 0 166 -34q77 -35 132 -99q57 -66 88 -157q32 -93 32 -207q0 -28 -3 -47t-9 -30q-6 -10 -17 -15q-12 -5 -28 -5h-612q15 -152 85 -222 q71 -71 184 -71q59 0 99 15q50 19 72 31q7 4 19 10.5t21 12t16 9.5q22 14 48 14q28 0 45 -23l73 -92q-42 -50 -92 -83q-51 -34 -105 -53q-61 -21 -111 -28q-61 -8 -109 -8q-111 0 -208 49q-95 48 -159 156q-62 -100 -160 -152q-100 -53 -230 -53q-104 0 -192 38 q-89 38 -151 108q-63 71 -99 171q-35 98 -35 225zM292 525q0 -170 58 -258t181 -88q122 0 180 88t58 258q0 171 -58 259q-59 89 -180 89q-123 0 -181 -89t-58 -259zM1021 626h443q0 50 -12 97q-12 48 -37 83q-27 38 -64 58q-41 22 -91 22q-108 0 -167 -68t-72 -192z" />
<glyph unicode="&#x178;" horiz-adv-x="1486" d="M32 1360v121h34h36h85h121h277v-121q0 -54 -51 -64q-2 0 -10 -2l-7 -2q-7 -2 -12 -3q-3 -1 -13 -3.5t-16 -3.5l196 -357q14 -25 41 -84q9 -19 32 -77q13 39 30 78q18 45 40 83l195 357q-7 2 -30 7q-5 1 -12 3l-7 2q-8 2 -10 2q-51 10 -51 64v121h276h122h85h36h34v-121 q0 -54 -51 -64q-2 -1 -6.5 -1.5t-6.5 -0.5l-30 -6q-10 -2 -60 -10l-418 -703v-372q13 -3 33 -6.5t27 -4.5t13 -2t11 -2t7 -1q6 -1 12 -3q52 -11 52 -64v-120h-155h-276h-155v120q0 53 52 64q6 2 12 3q2 0 7 1t11 2t13 2t27 4.5t33 6.5v372l-418 703q-14 3 -34 6t-27 4l-30 6 q-12 2 -13 2q-51 10 -51 64zM387 1707q0 26 11 53q9 23 29 44q15 16 43 30q22 11 50 11q32 0 55 -11q28 -13 45 -30q18 -18 30 -44t12 -53q0 -28 -12 -52q-14 -28 -30 -43q-20 -19 -45 -29q-24 -10 -55 -10q-27 0 -50 10q-25 11 -43 29t-29 43t-11 52zM830 1707q0 29 10 53 t30 44q18 18 44 30q23 11 53 11t53 -11q29 -14 44 -30q20 -21 29 -44q11 -27 11 -53q0 -27 -11 -52t-29 -43t-44 -29q-24 -10 -53 -10t-53 10q-23 9 -44 29q-19 17 -30 43q-10 23 -10 52z" />
<glyph unicode="&#x2c6;" horiz-adv-x="796" d="M45 1196l235 285h237l235 -285h-169q-33 0 -52 18l-107 98q-7 7 -11 10q-7 5 -11 12q-5 -8 -10 -12q-4 -3 -11 -10l-110 -98q-4 -4 -22 -12q-13 -6 -29 -6h-175z" />
<glyph unicode="&#x2dc;" horiz-adv-x="753" d="M50 1222q0 59 16 104q16 46 45 79q30 35 67 52q41 19 83 19q35 0 69 -14q36 -15 60 -28q10 -6 27.5 -15.5t23.5 -13.5q23 -13 44 -13q30 0 49 17q17 16 17 60h154q0 -58 -16 -103q-16 -46 -44 -80q-28 -35 -66 -52q-37 -17 -84 -17q-39 0 -69 13q-38 16 -59 28 q-36 20 -52 29q-23 13 -45 13q-30 0 -46 -17q-17 -19 -17 -61h-157z" />
<glyph unicode="&#x2000;" horiz-adv-x="959" />
<glyph unicode="&#x2001;" horiz-adv-x="1919" />
<glyph unicode="&#x2002;" horiz-adv-x="959" />
<glyph unicode="&#x2003;" horiz-adv-x="1919" />
<glyph unicode="&#x2004;" horiz-adv-x="639" />
<glyph unicode="&#x2005;" horiz-adv-x="479" />
<glyph unicode="&#x2006;" horiz-adv-x="319" />
<glyph unicode="&#x2007;" horiz-adv-x="319" />
<glyph unicode="&#x2008;" horiz-adv-x="239" />
<glyph unicode="&#x2009;" horiz-adv-x="383" />
<glyph unicode="&#x200a;" horiz-adv-x="106" />
<glyph unicode="&#x2010;" horiz-adv-x="648" d="M58 513v211h531v-211h-531z" />
<glyph unicode="&#x2011;" horiz-adv-x="648" d="M58 513v211h531v-211h-531z" />
<glyph unicode="&#x2012;" horiz-adv-x="648" d="M58 513v211h531v-211h-531z" />
<glyph unicode="&#x2013;" horiz-adv-x="947" d="M58 524v179h831v-179h-831z" />
<glyph unicode="&#x2014;" horiz-adv-x="1506" d="M58 524v179h1390v-179h-1390z" />
<glyph unicode="&#x2018;" horiz-adv-x="378" d="M43 1230q0 101 52 196q51 93 150 171l79 -48q9 -5 14 -15q4 -8 4 -16q0 -11 -4 -18q-6 -10 -9 -14q-11 -12 -28 -36q-18 -26 -28 -45q-13 -27 -20 -52q-8 -30 -8 -62q0 -38 11 -74q13 -41 38 -82q9 -15 9 -29q0 -33 -37 -46l-153 -60q-70 116 -70 230z" />
<glyph unicode="&#x2019;" horiz-adv-x="377" d="M38 1052q0 19 13 32q2 2 28 36q14 19 27 44q13 26 20 53q8 30 8 61q0 38 -11 74q-14 45 -38 84q-9 14 -9 27q0 32 38 46l152 60q36 -58 53 -115q17 -59 17 -115q0 -100 -52 -195q-50 -91 -149 -172l-79 48q-9 5 -14 15q-4 8 -4 17z" />
<glyph unicode="&#x201a;" horiz-adv-x="395" d="M47 -219q0 20 13 33q14 16 29 35q14 19 27 44q13 26 20 53t7 61q0 38 -11 74q-14 45 -38 84q-9 13 -9 28q0 32 38 46l152 59q36 -58 53 -115q17 -59 17 -114q0 -101 -52 -196q-50 -91 -149 -172l-78 48q-10 6 -15 15q-4 8 -4 17z" />
<glyph unicode="&#x201c;" horiz-adv-x="718" d="M43 1230q0 101 52 196q51 93 150 171l79 -48q9 -5 14 -15q4 -8 4 -16q0 -11 -4 -18q-6 -10 -9 -14q-11 -12 -28 -36q-18 -26 -28 -45q-13 -27 -20 -52q-8 -30 -8 -62q0 -38 11 -74q13 -41 38 -82q9 -15 9 -29q0 -33 -37 -46l-153 -60q-70 116 -70 230zM383 1230 q0 101 52 196q51 93 150 171l79 -48q9 -5 14 -15q4 -8 4 -16q0 -11 -4 -18q-6 -10 -9 -14q-11 -12 -28 -36q-18 -26 -28 -45q-13 -27 -20 -52q-8 -30 -8 -62q0 -38 11 -74q13 -41 38 -82q9 -15 9 -29q0 -33 -37 -46l-153 -60q-70 116 -70 230z" />
<glyph unicode="&#x201d;" horiz-adv-x="717" d="M38 1052q0 19 13 32q7 8 28 35q14 19 27 44q12 24 20 54t8 61q0 38 -11 74q-14 45 -38 84q-9 14 -9 27q0 32 38 46l152 60q36 -58 53 -115q17 -59 17 -115q0 -100 -52 -195q-50 -91 -149 -172l-79 48q-9 5 -14 15q-4 8 -4 17zM378 1052q0 19 13 32q7 8 28 35q14 19 27 44 q12 24 20 54t8 61q0 38 -11 74q-14 45 -38 84q-9 14 -9 27q0 32 38 46l152 60q36 -58 53 -115q17 -59 17 -115q0 -100 -52 -195q-50 -91 -149 -172l-79 48q-9 5 -14 15q-4 8 -4 17z" />
<glyph unicode="&#x201e;" horiz-adv-x="735" d="M47 -219q0 20 13 33q20 22 29 34q14 19 27 44q12 24 20 54q7 27 7 61q0 38 -11 74q-14 45 -38 84q-9 13 -9 28q0 32 38 46l152 59q36 -58 53 -115q17 -59 17 -114q0 -101 -52 -196q-50 -91 -149 -172l-78 48q-10 6 -15 15q-4 8 -4 17zM387 -219q0 20 13 33q20 22 29 34 q14 19 27 44q12 24 20 54q7 27 7 61q0 38 -11 74q-14 45 -38 84q-9 13 -9 28q0 32 38 46l152 59q36 -58 53 -115q17 -59 17 -114q0 -101 -52 -196q-50 -91 -149 -172l-78 48q-10 6 -15 15q-4 8 -4 17z" />
<glyph unicode="&#x2022;" horiz-adv-x="983" d="M45 607q0 94 35 173q36 80 96 142t141 96q82 35 173 35t175 -35q82 -34 142 -96t96 -142q35 -79 35 -173q0 -92 -35 -171q-36 -81 -96 -141q-61 -61 -142 -95q-84 -35 -175 -35t-173 35q-80 34 -141 95q-60 60 -96 141q-35 79 -35 171z" />
<glyph unicode="&#x2026;" horiz-adv-x="1509" d="M54 139q0 33 12 61t33 49t49 33q29 12 62 12q32 0 60 -12t49 -33t33 -49q13 -31 13 -61t-13 -61q-11 -26 -33 -48q-21 -21 -49 -33q-26 -11 -60 -11q-36 0 -62 11q-28 12 -49 33q-22 22 -33 48q-12 28 -12 61zM601 139q0 33 12 61t33 49t49 33q29 12 62 12q31 0 60 -12 q28 -12 49 -33t33 -49t12 -61t-12 -61q-11 -26 -33 -48q-21 -21 -49 -33q-26 -11 -60 -11q-36 0 -62 11q-28 12 -49 33q-22 22 -33 48q-12 29 -12 61zM1148 139q0 33 12 61q12 29 32 49q21 21 50 33q28 12 62 12q32 0 60 -12t49 -33t33 -49q12 -29 12 -61q0 -33 -12 -61 q-11 -26 -33 -48q-21 -21 -49 -33q-26 -11 -60 -11q-36 0 -62 11q-29 12 -50 33q-20 20 -32 48q-12 29 -12 61z" />
<glyph unicode="&#x202f;" horiz-adv-x="383" />
<glyph unicode="&#x2039;" horiz-adv-x="467" d="M41 535v32l262 406l83 -39q21 -9 30 -24t9 -31q0 -22 -13 -44l-142 -241q-15 -28 -32 -43q15 -14 32 -43l142 -242q13 -22 13 -44q0 -36 -39 -54l-83 -39z" />
<glyph unicode="&#x203a;" horiz-adv-x="471" d="M46 223q0 21 13 43l142 242q17 29 32 43q-17 15 -32 43l-142 241q-13 22 -13 44q0 37 39 55l83 39l262 -406v-32l-262 -406l-83 39q-22 9 -30 23q-9 15 -9 32z" />
<glyph unicode="&#x205f;" horiz-adv-x="479" />
<glyph unicode="&#x20ac;" horiz-adv-x="1203" d="M41 552v140h119q-1 8 -1 24v24v35q0 22 1 34h-119v141h136q24 126 75 226q52 102 125 172q72 69 167 109q91 38 202 38q143 0 244 -55t170 -148l-89 -96q-11 -12 -21 -20q-12 -9 -32 -9q-12 0 -26 9q-5 3 -26 20q-6 4 -17 13.5t-15 13.5q-15 13 -42 26q-30 15 -56 21 q-35 8 -78 8q-121 0 -204 -83t-116 -245h514v-78q0 -24 -19 -43q-20 -20 -51 -20h-461q-1 -12 -1 -34v-35v-24q0 -16 1 -24h434v-77q0 -24 -19 -43q-20 -20 -51 -20h-352q28 -175 110 -263q80 -86 202 -86q73 0 119 20q41 18 72 44q19 16 48 45q20 20 41 20q8 0 20 -4 q9 -3 17 -14l109 -100q-72 -111 -182 -169q-112 -59 -257 -59q-120 0 -215 40q-97 41 -167 114q-72 75 -116 178q-45 105 -63 234h-130z" />
<glyph unicode="&#x2122;" horiz-adv-x="1423" d="M44 1337v144h510v-144h-168v-474h-175v474h-167zM628 863v618h150q23 0 35 -3q11 -3 22 -24l134 -261l15 -36q7 -21 11 -37q6 17 14 37q10 24 16 36l136 261q11 20 23 23q16 4 34 4h150v-618h-154v309l12 102l-157 -309q-20 -38 -59 -38h-25q-42 0 -60 38l-155 304 l11 -97v-309h-153z" />
<glyph unicode="&#x25fc;" horiz-adv-x="1049" d="M0 0v1050h1050v-1050h-1050z" />
</font>
</defs>
</svg>
